<?xml version="1.0" standalone="no"?>
<!DOCTYPE svg PUBLIC "-//W3C//DTD SVG 1.1//EN" "http://www.w3.org/Graphics/SVG/1.1/DTD/svg11.dtd" >
<svg xmlns="http://www.w3.org/2000/svg">
<defs>
  <font id="tud-icons" horiz-adv-x="747.7769790548591">
    <font-face font-family="tud-icons"
      units-per-em="500" ascent="500"
      descent="0" />
    <missing-glyph horiz-adv-x="0" />
    <glyph glyph-name="anchor"
      unicode="&#xEA01;"
      horiz-adv-x="500" d="M267.86 428.57Q267.86 435.83 262.56 441.13T250 446.43T237.44 441.13T232.14 428.57T237.44 416.02T250 410.71T262.56 416.02T267.86 428.57zM500 169.64V71.43Q500 65.29 494.42 63.06Q492.19 62.5 491.07 62.5Q487.72 62.5 484.65 65.01L458.71 90.96Q425.5 51.06 369.84 27.76T250 4.46T130.16 27.76T41.29 90.96L15.35 65.01Q12.83 62.5 8.93 62.5Q7.81 62.5 5.58 63.06Q0 65.29 0 71.43V169.64Q0 173.55 2.51 176.06T8.93 178.57H107.14Q113.28 178.57 115.51 172.99Q117.75 167.69 113.56 163.23L85.66 135.32Q104.35 109.93 138.53 92.49T214.29 69.48V250H160.71Q153.46 250 148.16 255.3T142.86 267.86V303.57Q142.86 310.83 148.16 316.13T160.71 321.43H214.29V366.91Q198.1 376.4 188.34 392.72T178.57 428.57Q178.57 458.15 199.5 479.07T250 500T300.5 479.07T321.43 428.57Q321.43 409.04 311.66 392.72T285.71 366.91V321.43H339.29Q346.54 321.43 351.84 316.13T357.14 303.57V267.86Q357.14 260.6 351.84 255.3T339.29 250H285.71V69.48Q327.29 75.06 361.47 92.49T414.34 135.32L386.44 163.23Q382.25 167.69 384.49 172.99Q386.72 178.57 392.86 178.57H491.07Q494.98 178.57 497.49 176.06T500 169.64z" />
    <glyph glyph-name="angle-double-up"
      unicode="&#xEA02;"
      horiz-adv-x="321.42857142857144" d="M299.94 133.93Q299.94 130.3 297.15 127.51L283.2 113.56Q280.41 110.77 276.79 110.77T270.37 113.56L160.71 223.21L51.06 113.56Q48.27 110.77 44.64 110.77T38.23 113.56L24.27 127.51Q21.48 130.3 21.48 133.93T24.27 140.35L154.3 270.37Q157.09 273.16 160.71 273.16T167.13 270.37L297.15 140.35Q299.94 137.56 299.94 133.93zM299.94 241.07Q299.94 237.44 297.15 234.65L283.2 220.7Q280.41 217.91 276.79 217.91T270.37 220.7L160.71 330.36L51.06 220.7Q48.27 217.91 44.64 217.91T38.23 220.7L24.27 234.65Q21.48 237.44 21.48 241.07T24.27 247.49L154.3 377.51Q157.09 380.3 160.71 380.3T167.13 377.51L297.15 247.49Q299.94 244.7 299.94 241.07z" />
    <glyph glyph-name="angle-right"
      unicode="&#xEA03;"
      horiz-adv-x="178.57142857142858" d="M166.02 232.14Q166.02 228.52 163.23 225.73L33.2 95.7Q30.41 92.91 26.79 92.91T20.37 95.7L6.42 109.65Q3.63 112.44 3.63 116.07T6.42 122.49L116.07 232.14L6.42 341.8Q3.63 344.59 3.63 348.21T6.42 354.63L20.37 368.58Q23.16 371.37 26.79 371.37T33.2 368.58L163.23 238.56Q166.02 235.77 166.02 232.14z" />
    <glyph glyph-name="archive"
      unicode="&#xEA04;"
      horiz-adv-x="500" d="M303.57 267.86Q303.57 275.11 298.27 280.41T285.71 285.71H214.29Q207.03 285.71 201.73 280.41T196.43 267.86T201.73 255.3T214.29 250H285.71Q292.97 250 298.27 255.3T303.57 267.86zM464.29 321.43V53.57Q464.29 46.32 458.98 41.02T446.43 35.71H53.57Q46.32 35.71 41.02 41.02T35.71 53.57V321.43Q35.71 328.68 41.02 333.98T53.57 339.29H446.43Q453.68 339.29 458.98 333.98T464.29 321.43zM482.14 446.43V375Q482.14 367.75 476.84 362.44T464.29 357.14H35.71Q28.46 357.14 23.16 362.44T17.86 375V446.43Q17.86 453.68 23.16 458.98T35.71 464.29H464.29Q471.54 464.29 476.84 458.98T482.14 446.43z" />
    <glyph glyph-name="arrow-down"
      unicode="&#xEA05;"
      horiz-adv-x="464.2857142857143" d="M449.5 267.86Q449.5 253.07 439.17 242.75L257.53 60.83Q246.65 50.5 232.14 50.5Q217.35 50.5 207.03 60.83L25.39 242.75Q14.79 252.79 14.79 267.86Q14.79 282.65 25.39 293.25L46.04 314.17Q56.92 324.5 71.43 324.5Q86.22 324.5 96.54 314.17L178.57 232.14V428.57Q178.57 443.08 189.17 453.68T214.29 464.29H250Q264.51 464.29 275.11 453.68T285.71 428.57V232.14L367.75 314.17Q378.07 324.5 392.86 324.5Q407.37 324.5 418.25 314.17L439.17 293.25Q449.5 282.37 449.5 267.86z" />
    <glyph glyph-name="arrow-up"
      unicode="&#xEA06;"
      horiz-adv-x="464.2857142857143" d="M449.5 229.07Q449.5 214.84 439.17 203.96L418.25 183.04Q407.65 172.43 392.86 172.43Q377.79 172.43 367.75 183.04L285.71 264.79V68.36Q285.71 53.85 275.25 44.78T250 35.71H214.29Q199.5 35.71 189.03 44.78T178.57 68.36V264.79L96.54 183.04Q86.5 172.43 71.43 172.43T46.32 183.04L25.39 203.96Q14.79 214.56 14.79 229.07Q14.79 243.86 25.39 254.46L207.03 436.1Q216.8 446.43 232.14 446.43Q247.21 446.43 257.53 436.1L439.17 254.46Q449.5 243.58 449.5 229.07z" />
    <glyph glyph-name="arrows-alt"
      unicode="&#xEA07;"
      horiz-adv-x="428.57142857142856" d="M357.98 349.05L258.93 250L357.98 150.95L398.16 191.13Q406.25 199.78 417.69 195.03Q428.57 190.29 428.57 178.57V53.57Q428.57 46.32 423.27 41.02T410.71 35.71H285.71Q274 35.71 269.25 46.88Q264.51 57.76 273.16 66.13L313.34 106.31L214.29 205.36L115.23 106.31L155.41 66.13Q164.06 57.76 159.32 46.88Q154.58 35.71 142.86 35.71H17.86Q10.6 35.71 5.3 41.02T0 53.57V178.57Q0 190.29 11.16 195.03Q22.04 199.78 30.41 191.13L70.59 150.95L169.64 250L70.59 349.05L30.41 308.87Q25.11 303.57 17.86 303.57Q14.51 303.57 11.16 304.97Q0 309.71 0 321.43V446.43Q0 453.68 5.3 458.98T17.86 464.29H142.86Q154.58 464.29 159.32 453.13Q164.06 442.24 155.41 433.87L115.23 393.69L214.29 294.64L313.34 393.69L273.16 433.87Q264.51 442.24 269.25 453.13Q274 464.29 285.71 464.29H410.71Q417.97 464.29 423.27 458.98T428.57 446.43V321.43Q428.57 309.71 417.69 304.97Q414.06 303.57 410.71 303.57Q403.46 303.57 398.16 308.87z" />
    <glyph glyph-name="bars"
      unicode="&#xEA08;"
      horiz-adv-x="428.57142857142856" d="M428.57 125V89.29Q428.57 82.03 423.27 76.73T410.71 71.43H17.86Q10.6 71.43 5.3 76.73T0 89.29V125Q0 132.25 5.3 137.56T17.86 142.86H410.71Q417.97 142.86 423.27 137.56T428.57 125zM428.57 267.86V232.14Q428.57 224.89 423.27 219.59T410.71 214.29H17.86Q10.6 214.29 5.3 219.59T0 232.14V267.86Q0 275.11 5.3 280.41T17.86 285.71H410.71Q417.97 285.71 423.27 280.41T428.57 267.86zM428.57 410.71V375Q428.57 367.75 423.27 362.44T410.71 357.14H17.86Q10.6 357.14 5.3 362.44T0 375V410.71Q0 417.97 5.3 423.27T17.86 428.57H410.71Q417.97 428.57 423.27 423.27T428.57 410.71z" />
    <glyph glyph-name="binoculars"
      unicode="&#xEA09;"
      horiz-adv-x="500" d="M196.43 410.71V196.43Q196.43 189.17 191.13 183.87T178.57 178.57V17.86Q178.57 10.6 173.27 5.3T160.71 0H17.86Q10.6 0 5.3 5.3T0 17.86V160.71L69.48 404.3Q71.43 410.71 78.13 410.71H196.43zM285.71 410.71V214.29H214.29V410.71H285.71zM500 160.71V17.86Q500 10.6 494.7 5.3T482.14 0H339.29Q332.03 0 326.73 5.3T321.43 17.86V178.57Q314.17 178.57 308.87 183.87T303.57 196.43V410.71H421.88Q428.57 410.71 430.52 404.3zM205.36 491.07V428.57H107.14V491.07Q107.14 494.98 109.65 497.49T116.07 500H196.43Q200.33 500 202.85 497.49T205.36 491.07zM392.86 491.07V428.57H294.64V491.07Q294.64 494.98 297.15 497.49T303.57 500H383.93Q387.83 500 390.35 497.49T392.86 491.07z" />
    <glyph glyph-name="bolt"
      unicode="&#xEA0A;"
      horiz-adv-x="250" d="M246.93 342.08Q251.95 336.5 248.88 329.8L98.21 6.98Q94.59 0 86.5 0Q85.38 0 82.59 0.56Q77.85 1.95 75.47 5.86T74.22 14.23L129.19 239.68L15.9 211.5Q14.79 211.22 12.56 211.22Q7.53 211.22 3.91 214.29Q-1.12 218.47 0.28 225.17L56.36 455.36Q57.48 459.26 60.83 461.77T68.64 464.29H160.16Q165.46 464.29 169.08 460.8T172.71 452.57Q172.71 450.33 171.32 447.54L123.6 318.36L234.1 345.7Q236.33 346.26 237.44 346.26Q242.75 346.26 246.93 342.08z" />
    <glyph glyph-name="book"
      unicode="&#xEA0B;"
      horiz-adv-x="464.2857142857143" d="M457.31 366.63Q468.47 350.73 462.33 330.64L385.6 77.85Q380.3 59.99 364.26 47.85T330.08 35.71H72.54Q51.06 35.71 31.11 50.64T3.35 87.33Q-3.35 106.03 2.79 122.77Q2.79 123.88 3.63 130.3T4.74 140.63Q5.02 142.86 3.91 146.62T3.07 152.06Q3.63 155.13 5.3 157.92T9.91 164.48T14.51 171.04Q20.93 181.64 27.06 196.57T35.44 222.1Q36.27 224.89 35.57 230.47T35.44 238.28Q36.27 241.35 40.18 246.09T44.92 252.51Q50.78 262.56 56.64 278.18T63.62 303.29Q63.9 305.8 62.92 312.22T63.06 320.03Q64.17 323.66 69.2 328.54T75.33 334.82Q80.64 342.08 87.19 358.4T94.87 385.32Q95.15 387.56 94.03 392.44T93.47 399.83Q94.03 402.06 95.98 404.85T101 411.27T105.75 417.13Q107.98 420.48 110.35 425.64T114.54 435.41T119 445.45T124.44 454.38T131.84 460.94T141.88 464.15T155.13 462.61L154.85 461.77Q165.46 464.29 169.08 464.29H381.42Q402.06 464.29 413.23 448.66T418.25 412.39L341.8 159.6Q331.75 126.4 321.85 116.77T285.99 107.14H43.53Q35.99 107.14 32.92 102.96Q29.85 98.49 32.65 90.96Q39.34 71.43 72.82 71.43H330.36Q338.45 71.43 345.98 75.75T355.75 87.33L439.45 362.72Q441.41 368.86 440.85 378.63Q451.45 374.44 457.31 366.63zM160.44 366.07Q159.32 362.44 160.99 359.79T166.57 357.14H336.22Q339.84 357.14 343.33 359.79T347.94 366.07L353.79 383.93Q354.91 387.56 353.24 390.21T347.66 392.86H178.01Q174.39 392.86 170.9 390.21T166.29 383.93zM137.28 294.64Q136.16 291.02 137.83 288.36T143.42 285.71H313.06Q316.69 285.71 320.17 288.36T324.78 294.64L330.64 312.5Q331.75 316.13 330.08 318.78T324.5 321.43H154.85Q151.23 321.43 147.74 318.78T143.14 312.5z" />
    <glyph glyph-name="calendar-o"
      unicode="&#xEA0C;"
      horiz-adv-x="464.2857142857143" d="M35.71 35.71H428.57V321.43H35.71V35.71zM142.86 375V455.36Q142.86 459.26 140.35 461.77T133.93 464.29H116.07Q112.17 464.29 109.65 461.77T107.14 455.36V375Q107.14 371.09 109.65 368.58T116.07 366.07H133.93Q137.83 366.07 140.35 368.58T142.86 375zM357.14 375V455.36Q357.14 459.26 354.63 461.77T348.21 464.29H330.36Q326.45 464.29 323.94 461.77T321.43 455.36V375Q321.43 371.09 323.94 368.58T330.36 366.07H348.21Q352.12 366.07 354.63 368.58T357.14 375zM464.29 392.86V35.71Q464.29 21.21 453.68 10.6T428.57 0H35.71Q21.21 0 10.6 10.6T0 35.71V392.86Q0 407.37 10.6 417.97T35.71 428.57H71.43V455.36Q71.43 473.77 84.54 486.89T116.07 500H133.93Q152.34 500 165.46 486.89T178.57 455.36V428.57H285.71V455.36Q285.71 473.77 298.83 486.89T330.36 500H348.21Q366.63 500 379.74 486.89T392.86 455.36V428.57H428.57Q443.08 428.57 453.68 417.97T464.29 392.86z" />
    <glyph glyph-name="calendar"
      unicode="&#xEA0D;"
      horiz-adv-x="464.2857142857143" d="M35.71 35.71H116.07V116.07H35.71V35.71zM133.93 35.71H223.21V116.07H133.93V35.71zM35.71 133.93H116.07V223.21H35.71V133.93zM133.93 133.93H223.21V223.21H133.93V133.93zM35.71 241.07H116.07V321.43H35.71V241.07zM241.07 35.71H330.36V116.07H241.07V35.71zM133.93 241.07H223.21V321.43H133.93V241.07zM348.21 35.71H428.57V116.07H348.21V35.71zM241.07 133.93H330.36V223.21H241.07V133.93zM142.86 375V455.36Q142.86 458.98 140.21 461.64T133.93 464.29H116.07Q112.44 464.29 109.79 461.64T107.14 455.36V375Q107.14 371.37 109.79 368.72T116.07 366.07H133.93Q137.56 366.07 140.21 368.72T142.86 375zM348.21 133.93H428.57V223.21H348.21V133.93zM241.07 241.07H330.36V321.43H241.07V241.07zM348.21 241.07H428.57V321.43H348.21V241.07zM357.14 375V455.36Q357.14 458.98 354.49 461.64T348.21 464.29H330.36Q326.73 464.29 324.08 461.64T321.43 455.36V375Q321.43 371.37 324.08 368.72T330.36 366.07H348.21Q351.84 366.07 354.49 368.72T357.14 375zM464.29 392.86V35.71Q464.29 21.21 453.68 10.6T428.57 0H35.71Q21.21 0 10.6 10.6T0 35.71V392.86Q0 407.37 10.6 417.97T35.71 428.57H71.43V455.36Q71.43 473.77 84.54 486.89T116.07 500H133.93Q152.34 500 165.46 486.89T178.57 455.36V428.57H285.71V455.36Q285.71 473.77 298.83 486.89T330.36 500H348.21Q366.63 500 379.74 486.89T392.86 455.36V428.57H428.57Q443.08 428.57 453.68 417.97T464.29 392.86z" />
    <glyph glyph-name="caret-down"
      unicode="&#xEA0E;"
      horiz-adv-x="285.7142857142857" d="M285.71 303.57Q285.71 296.32 280.41 291.02L155.41 166.02Q150.11 160.71 142.86 160.71T130.3 166.02L5.3 291.02Q0 296.32 0 303.57T5.3 316.13T17.86 321.43H267.86Q275.11 321.43 280.41 316.13T285.71 303.57z" />
    <glyph glyph-name="chain-broken"
      unicode="&#xEA0F;"
      horiz-adv-x="464.2857142857143" d="M122.49 145.37L51.06 73.94Q47.99 71.43 44.64 71.43T38.23 73.94Q35.71 76.73 35.71 80.36T38.23 86.77L109.65 158.2Q112.44 160.71 116.07 160.71T122.49 158.2Q125 155.41 125 151.79T122.49 145.37zM169.64 133.93V44.64Q169.64 40.74 167.13 38.23T160.71 35.71T154.3 38.23T151.79 44.64V133.93Q151.79 137.83 154.3 140.35T160.71 142.86T167.13 140.35T169.64 133.93zM107.14 196.43Q107.14 192.52 104.63 190.01T98.21 187.5H8.93Q5.02 187.5 2.51 190.01T0 196.43T2.51 202.85T8.93 205.36H98.21Q102.12 205.36 104.63 202.85T107.14 196.43zM459.82 160.71Q459.82 127.23 436.1 104.07L395.09 63.34Q371.93 40.18 338.45 40.18Q304.69 40.18 281.53 63.9L188.34 157.37Q182.48 163.23 176.62 172.99L243.3 178.01L319.48 101.56Q327.01 94.03 338.45 93.89T357.42 101.28L398.44 142.02Q406.25 149.83 406.25 160.71Q406.25 171.88 398.44 179.69L321.99 256.42L327.01 323.1Q336.77 317.24 342.63 311.38L436.38 217.63Q459.82 193.64 459.82 160.71zM287.67 362.72L220.98 357.7L144.81 434.15Q137 441.96 125.84 441.96Q114.96 441.96 106.86 434.43L65.85 393.69Q58.04 385.88 58.04 375Q58.04 363.84 65.85 356.03L142.3 279.58L137.28 212.61Q127.51 218.47 121.65 224.33L27.9 318.08Q4.46 342.08 4.46 375Q4.46 408.48 28.18 431.64L69.2 472.38Q92.35 495.54 125.84 495.54Q159.6 495.54 182.76 471.82L275.95 378.35Q281.81 372.49 287.67 362.72zM464.29 339.29Q464.29 335.38 461.77 332.87T455.36 330.36H366.07Q362.17 330.36 359.65 332.87T357.14 339.29T359.65 345.7T366.07 348.21H455.36Q459.26 348.21 461.77 345.7T464.29 339.29zM312.5 491.07V401.79Q312.5 397.88 309.99 395.37T303.57 392.86T297.15 395.37T294.64 401.79V491.07Q294.64 494.98 297.15 497.49T303.57 500T309.99 497.49T312.5 491.07zM426.06 448.94L354.63 377.51Q351.56 375 348.21 375T341.8 377.51Q339.29 380.3 339.29 383.93T341.8 390.35L413.23 461.77Q416.02 464.29 419.64 464.29T426.06 461.77Q428.57 458.98 428.57 455.36T426.06 448.94z" />
    <glyph glyph-name="check"
      unicode="&#xEA10;"
      horiz-adv-x="500" d="M466.24 342.08Q466.24 330.92 458.43 323.1L256.42 121.09L218.47 83.15Q210.66 75.33 199.5 75.33T180.52 83.15L142.58 121.09L41.57 222.1Q33.76 229.91 33.76 241.07T41.57 260.04L79.52 297.99Q87.33 305.8 98.49 305.8T117.47 297.99L199.5 215.68L382.53 399Q390.35 406.81 401.51 406.81T420.48 399L458.43 361.05Q466.24 353.24 466.24 342.08z" />
    <glyph glyph-name="chevron-down"
      unicode="&#xEA11;"
      horiz-adv-x="500" d="M469.59 274.55L262.56 67.8Q257.25 62.5 250 62.5T237.44 67.8L30.41 274.55Q25.11 279.85 25.11 287.25T30.41 299.94L76.73 345.98Q82.03 351.28 89.29 351.28T101.84 345.98L250 197.82L398.16 345.98Q403.46 351.28 410.71 351.28T423.27 345.98L469.59 299.94Q474.89 294.64 474.89 287.25T469.59 274.55z" />
    <glyph glyph-name="circle-thin"
      unicode="&#xEA12;"
      horiz-adv-x="428.57142857142856" d="M214.29 428.57Q178.01 428.57 144.95 414.34T88.03 376.26T49.94 319.34T35.71 250T49.94 180.66T88.03 123.74T144.95 85.66T214.29 71.43T283.62 85.66T340.54 123.74T378.63 180.66T392.86 250T378.63 319.34T340.54 376.26T283.62 414.34T214.29 428.57zM428.57 250Q428.57 191.69 399.83 142.44T321.85 64.45T214.29 35.71T106.72 64.45T28.74 142.44T0 250T28.74 357.56T106.72 435.55T214.29 464.29T321.85 435.55T399.83 357.56T428.57 250z" />
    <glyph glyph-name="circle"
      unicode="&#xEA13;"
      horiz-adv-x="428.57142857142856" d="M428.57 250Q428.57 191.69 399.83 142.44T321.85 64.45T214.29 35.71T106.72 64.45T28.74 142.44T0 250T28.74 357.56T106.72 435.55T214.29 464.29T321.85 435.55T399.83 357.56T428.57 250z" />
    <glyph glyph-name="clipboard"
      unicode="&#xEA14;"
      horiz-adv-x="500" d="M214.29 35.71H464.29V214.29H348.21Q337.05 214.29 329.24 222.1T321.43 241.07V357.14H214.29V35.71zM285.71 437.5V455.36Q285.71 458.98 283.06 461.64T276.79 464.29H80.36Q76.73 464.29 74.08 461.64T71.43 455.36V437.5Q71.43 433.87 74.08 431.22T80.36 428.57H276.79Q280.41 428.57 283.06 431.22T285.71 437.5zM357.14 250H440.57L357.14 333.43V250zM500 214.29V26.79Q500 15.63 492.19 7.81T473.21 0H205.36Q194.2 0 186.38 7.81T178.57 26.79V71.43H26.79Q15.63 71.43 7.81 79.24T0 98.21V473.21Q0 484.38 7.81 492.19T26.79 500H330.36Q341.52 500 349.33 492.19T357.14 473.21V381.7Q363 378.07 367.19 373.88L481.03 260.04Q488.84 252.23 494.42 238.84T500 214.29z" />
    <glyph glyph-name="close"
      unicode="&#xEA15;"
      horiz-adv-x="392.8571428571429" d="M362.17 131.14Q362.17 119.98 354.35 112.17L316.41 74.22Q308.59 66.41 297.43 66.41T278.46 74.22L196.43 156.25L114.4 74.22Q106.58 66.41 95.42 66.41T76.45 74.22L38.5 112.17Q30.69 119.98 30.69 131.14T38.5 150.11L120.54 232.14L38.5 314.17Q30.69 321.99 30.69 333.15T38.5 352.12L76.45 390.07Q84.26 397.88 95.42 397.88T114.4 390.07L196.43 308.04L278.46 390.07Q286.27 397.88 297.43 397.88T316.41 390.07L354.35 352.12Q362.17 344.31 362.17 333.15T354.35 314.17L272.32 232.14L354.35 150.11Q362.17 142.3 362.17 131.14z" />
    <glyph glyph-name="code"
      unicode="&#xEA16;"
      horiz-adv-x="535.7142857142858" d="M172.15 109.65L158.2 95.7Q155.41 92.91 151.79 92.91T145.37 95.7L15.35 225.73Q12.56 228.52 12.56 232.14T15.35 238.56L145.37 368.58Q148.16 371.37 151.79 371.37T158.2 368.58L172.15 354.63Q174.94 351.84 174.94 348.21T172.15 341.8L62.5 232.14L172.15 122.49Q174.94 119.7 174.94 116.07T172.15 109.65zM337.05 407.37L232.98 47.15Q231.86 43.53 228.66 41.71T222.1 41.02L204.8 45.76Q201.17 46.88 199.36 50.08T198.66 56.92L302.73 417.13Q303.85 420.76 307.06 422.57T313.62 423.27L330.92 418.53Q334.54 417.41 336.36 414.2T337.05 407.37zM520.37 225.73L390.35 95.7Q387.56 92.91 383.93 92.91T377.51 95.7L363.56 109.65Q360.77 112.44 360.77 116.07T363.56 122.49L473.21 232.14L363.56 341.8Q360.77 344.59 360.77 348.21T363.56 354.63L377.51 368.58Q380.3 371.37 383.93 371.37T390.35 368.58L520.37 238.56Q523.16 235.77 523.16 232.14T520.37 225.73z" />
    <glyph glyph-name="comment"
      unicode="&#xEA17;"
      horiz-adv-x="500" d="M500 250Q500 201.45 466.52 160.3T375.56 95.28T250 71.43Q230.47 71.43 209.54 73.66Q154.3 24.83 81.19 6.14Q67.52 2.23 49.39 0Q44.64 -0.56 40.88 2.51T35.99 10.6V10.88Q35.16 12 35.85 14.23T36.41 17.02T37.67 19.67L39.34 22.18L41.29 24.55L43.53 27.06Q45.48 29.3 52.18 36.69T61.8 47.29T70.45 58.31T79.52 72.54T87.05 89.01T94.31 110.21Q50.5 135.04 25.25 171.6T0 250Q0 286.27 19.81 319.34T73.1 376.4T152.9 414.48T250 428.57Q318.08 428.57 375.56 404.72T466.52 339.7T500 250z" />
    <glyph glyph-name="comments-o"
      unicode="&#xEA18;"
      horiz-adv-x="500" d="M196.43 392.86Q153.74 392.86 116.63 378.35T57.62 339.01T35.71 285.71Q35.71 262.83 50.5 241.63T92.08 204.8L119.14 189.17L109.38 165.74Q118.86 171.32 126.67 176.62L138.95 185.27L153.74 182.48Q175.5 178.57 196.43 178.57Q239.12 178.57 276.23 193.08T335.24 232.42T357.14 285.71T335.24 339.01T276.23 378.35T196.43 392.86zM196.43 428.57Q249.72 428.57 295.06 409.46T366.63 357.42T392.86 285.71T366.63 214.01T295.06 161.97T196.43 142.86Q172.43 142.86 147.32 147.32Q112.72 122.77 69.75 111.61Q59.71 109.1 45.76 107.14H44.92Q41.85 107.14 39.2 109.38T35.99 115.23Q35.71 116.07 35.71 117.05T35.85 118.86T36.41 120.54L37.11 121.93L38.09 123.47L39.2 124.86L40.46 126.26L41.57 127.51Q42.97 129.19 47.99 134.49T55.25 142.72T61.52 150.81T68.5 161.55T74.22 173.83Q39.62 193.92 19.81 223.21T0 285.71Q0 324.5 26.23 357.42T97.8 409.46T196.43 428.57zM425.78 102.4Q428.57 95.7 431.5 90.12T438.48 79.38T444.75 71.29T452.01 63.06T458.43 56.08Q458.71 55.8 459.54 54.83T460.8 53.43T461.91 52.04T462.89 50.5L463.59 49.11L464.15 47.43L464.29 45.62L464.01 43.81Q463.17 39.9 460.38 37.67T454.24 35.71Q440.29 37.67 430.25 40.18Q387.28 51.34 352.68 75.89Q327.57 71.43 303.57 71.43Q227.96 71.43 171.88 108.26Q188.06 107.14 196.43 107.14Q241.35 107.14 282.65 119.7T356.31 155.69Q391.18 181.36 409.88 214.84T428.57 285.71Q428.57 307.2 422.15 328.13Q458.15 308.31 479.07 278.46T500 214.29Q500 180.8 480.19 151.65T425.78 102.4z" />
    <glyph glyph-name="dedent"
      unicode="&#xEA19;"
      horiz-adv-x="500" d="M107.14 348.21V187.5Q107.14 183.87 104.49 181.22T98.21 178.57Q94.31 178.57 91.8 181.08L11.44 261.44Q8.93 263.95 8.93 267.86T11.44 274.27L91.8 354.63Q94.31 357.14 98.21 357.14Q101.84 357.14 104.49 354.49T107.14 348.21zM500 133.93V80.36Q500 76.73 497.35 74.08T491.07 71.43H8.93Q5.3 71.43 2.65 74.08T0 80.36V133.93Q0 137.56 2.65 140.21T8.93 142.86H491.07Q494.7 142.86 497.35 140.21T500 133.93zM500 241.07V187.5Q500 183.87 497.35 181.22T491.07 178.57H187.5Q183.87 178.57 181.22 181.22T178.57 187.5V241.07Q178.57 244.7 181.22 247.35T187.5 250H491.07Q494.7 250 497.35 247.35T500 241.07zM500 348.21V294.64Q500 291.02 497.35 288.36T491.07 285.71H187.5Q183.87 285.71 181.22 288.36T178.57 294.64V348.21Q178.57 351.84 181.22 354.49T187.5 357.14H491.07Q494.7 357.14 497.35 354.49T500 348.21zM500 455.36V401.79Q500 398.16 497.35 395.51T491.07 392.86H8.93Q5.3 392.86 2.65 395.51T0 401.79V455.36Q0 458.98 2.65 461.64T8.93 464.29H491.07Q494.7 464.29 497.35 461.64T500 455.36z" />
    <glyph glyph-name="envelope-o"
      unicode="&#xEA1A;"
      horiz-adv-x="500" d="M464.29 80.36V294.64Q455.36 284.6 445.03 276.23Q370.26 218.75 326.17 181.92Q311.94 169.92 303.01 163.23T278.88 149.69T250.28 142.86H249.72Q236.33 142.86 221.12 149.69T196.99 163.23T173.83 181.92Q129.74 218.75 54.97 276.23Q44.64 284.6 35.71 294.64V80.36Q35.71 76.73 38.36 74.08T44.64 71.43H455.36Q458.98 71.43 461.64 74.08T464.29 80.36zM464.29 373.6V380.44L464.15 384.07L463.31 387.56L461.77 390.07L459.26 392.16L455.36 392.86H44.64Q41.02 392.86 38.36 390.21T35.71 383.93Q35.71 337.05 76.73 304.69Q130.58 262.28 188.62 216.24Q190.29 214.84 198.38 208.01T211.22 197.54T223.63 188.76T237.72 181.08T249.72 178.57H250.28Q255.86 178.57 262.28 181.08T276.37 188.76T288.78 197.54T301.62 208.01T311.38 216.24Q369.42 262.28 423.27 304.69Q438.34 316.69 451.31 336.91T464.29 373.6zM500 383.93V80.36Q500 61.94 486.89 48.83T455.36 35.71H44.64Q26.23 35.71 13.11 48.83T0 80.36V383.93Q0 402.34 13.11 415.46T44.64 428.57H455.36Q473.77 428.57 486.89 415.46T500 383.93z" />
    <glyph glyph-name="eraser"
      unicode="&#xEA1B;"
      horiz-adv-x="535.7142857142858" d="M250 107.14L343.75 214.29H129.46L35.71 107.14H250zM532.65 407.65Q536.83 398.16 535.3 387.7T526.79 369.42L276.79 83.71Q266.18 71.43 250 71.43H35.71Q25.11 71.43 16.32 77.15T3.07 92.35Q-1.12 101.84 0.42 112.3T8.93 130.58L258.93 416.29Q269.53 428.57 285.71 428.57H500Q510.6 428.57 519.39 422.85T532.65 407.65z" />
    <glyph glyph-name="eur"
      unicode="&#xEA1C;"
      horiz-adv-x="285.7142857142857" d="M272.32 135.32L282.09 90.96Q282.92 87.61 281.25 84.68T276.51 80.64L275.11 80.36Q274 79.8 272.18 79.38T267.72 78.13T261.72 76.59T254.6 75.2T246.23 73.8T236.89 72.54T226.7 71.71T215.96 71.43Q150.67 71.43 101.84 107.84T35.44 205.92H8.93Q5.3 205.92 2.65 208.57T0 214.84V246.37Q0 250 2.65 252.65T8.93 255.3H27.34Q26.79 271.21 27.62 284.6H8.93Q5.02 284.6 2.51 287.11T0 293.53V325.33Q0 329.24 2.51 331.75T8.93 334.26H36.27Q54.97 392.86 104.21 428.57T215.96 464.29Q244.42 464.29 270.09 457.87Q273.16 457.03 275.67 453.68Q277.34 450.61 276.51 446.99L264.51 402.62Q263.67 399 260.6 397.18T253.91 396.48L252.79 396.76Q251.67 397.04 249.58 397.46L244.7 398.44L238.42 399.41L231.17 400.25L223.07 400.95L214.84 401.23Q179.69 401.23 151.79 383.37T109.93 334.26H240.51Q244.98 334.26 247.49 330.92Q250.28 327.57 249.44 323.66L242.75 291.85Q241.35 284.6 233.82 284.6H97.66Q96.82 274.27 97.66 255.3H225.73Q229.91 255.3 232.7 251.95Q235.21 248.6 234.38 244.42L227.68 213.17Q227.12 210.1 224.61 208.01T219.03 205.92H111.05Q124.44 173.27 152.76 154.16T216.52 135.04Q221.54 135.04 226.56 135.46T235.91 136.44T244.14 137.7T250.98 139.09T256.14 140.35L259.49 141.18L260.88 141.74Q264.51 143.14 268.14 141.18Q271.48 139.23 272.32 135.32z" />
    <glyph glyph-name="exclamation-circle"
      unicode="&#xEA1D;"
      horiz-adv-x="428.57142857142856" d="M214.29 464.29Q272.6 464.29 321.85 435.55T399.83 357.56T428.57 250T399.83 142.44T321.85 64.45T214.29 35.71T106.72 64.45T28.74 142.44T0 250T28.74 357.56T106.72 435.55T214.29 464.29zM250 116.35V169.36Q250 173.27 247.49 175.92T241.35 178.57H187.78Q184.15 178.57 181.36 175.78T178.57 169.36V116.35Q178.57 112.72 181.36 109.93T187.78 107.14H241.35Q244.98 107.14 247.49 109.79T250 116.35zM249.44 212.33L254.46 385.6Q254.46 388.95 251.67 390.63Q248.88 392.86 244.98 392.86H183.59Q179.69 392.86 176.9 390.63Q174.11 388.95 174.11 385.6L178.85 212.33Q178.85 209.54 181.64 207.45T188.34 205.36H239.96Q243.86 205.36 246.51 207.45T249.44 212.33z" />
    <glyph glyph-name="exclamation-triangle"
      unicode="&#xEA1E;"
      horiz-adv-x="500" d="M285.71 116.35V169.36Q285.71 173.27 283.06 175.92T276.79 178.57H223.21Q219.59 178.57 216.94 175.92T214.29 169.36V116.35Q214.29 112.44 216.94 109.79T223.21 107.14H276.79Q280.41 107.14 283.06 109.79T285.71 116.35zM285.16 220.7L290.18 348.77Q290.18 352.12 287.39 354.07Q283.76 357.14 280.69 357.14H219.31Q216.24 357.14 212.61 354.07Q209.82 352.12 209.82 348.21L214.56 220.7Q214.56 217.91 217.35 216.1T224.05 214.29H275.67Q279.58 214.29 282.23 216.1T285.16 220.7zM281.25 481.31L495.54 88.45Q505.3 70.87 494.98 53.29Q490.23 45.2 482 40.46T464.29 35.71H35.71Q26.23 35.71 18 40.46T5.02 53.29Q-5.3 70.87 4.46 88.45L218.75 481.31Q223.49 489.96 231.86 494.98T250 500T268.14 494.98T281.25 481.31z" />
    <glyph glyph-name="expand"
      unicode="&#xEA1F;"
      horiz-adv-x="428.57142857142856" d="M210.66 205.36Q210.66 201.73 207.87 198.94L115.23 106.31L155.41 66.13Q160.71 60.83 160.71 53.57T155.41 41.02T142.86 35.71H17.86Q10.6 35.71 5.3 41.02T0 53.57V178.57Q0 185.83 5.3 191.13T17.86 196.43T30.41 191.13L70.59 150.95L163.23 243.58Q166.02 246.37 169.64 246.37T176.06 243.58L207.87 211.77Q210.66 208.98 210.66 205.36zM428.57 446.43V321.43Q428.57 314.17 423.27 308.87T410.71 303.57T398.16 308.87L357.98 349.05L265.35 256.42Q262.56 253.63 258.93 253.63T252.51 256.42L220.7 288.23Q217.91 291.02 217.91 294.64T220.7 301.06L313.34 393.69L273.16 433.87Q267.86 439.17 267.86 446.43T273.16 458.98T285.71 464.29H410.71Q417.97 464.29 423.27 458.98T428.57 446.43z" />
    <glyph glyph-name="eye-slash"
      unicode="&#xEA20;"
      horiz-adv-x="500" d="M154.85 127.51L176.62 166.85Q152.34 184.43 138.67 211.22T125 267.86Q125 301.62 142.02 330.64Q78.13 297.99 35.71 232.14Q82.31 160.16 154.85 127.51zM263.39 339.29Q263.39 344.87 259.49 348.77T250 352.68Q215.12 352.68 190.15 327.71T165.18 267.86Q165.18 262.28 169.08 258.37T178.57 254.46T188.06 258.37T191.96 267.86Q191.96 291.85 208.98 308.87T250 325.89Q255.58 325.89 259.49 329.8T263.39 339.29zM364.68 392.58Q364.68 390.63 364.4 390.07Q334.82 337.33 276.23 231.86T188.34 73.94L174.67 49.11Q171.88 44.64 166.85 44.64Q163.5 44.64 129.46 64.17Q125 66.96 125 71.99Q125 75.33 137.28 96.26Q97.38 114.4 63.76 144.53T5.58 212.89Q0 221.54 0 232.14T5.58 251.4Q48.27 316.96 111.61 354.91T250 392.86Q274.83 392.86 300.22 388.11L315.29 415.18Q318.08 419.64 323.1 419.64Q324.5 419.64 328.13 417.97T336.77 413.64T345.98 408.48T354.77 403.32T360.21 400.11Q364.68 397.32 364.68 392.58zM375 267.86Q375 229.07 352.96 197.13T294.64 151.23L372.77 291.29Q375 278.74 375 267.86zM500 232.14Q500 222.38 494.42 212.89Q483.54 195.03 464.01 172.43Q422.15 124.44 367.05 97.94T250 71.43L270.65 108.26Q329.8 113.28 380.16 146.48T464.29 232.14Q432.2 282.09 385.6 314.17L403.18 345.42Q429.69 327.57 454.1 302.73T494.42 251.4Q500 241.91 500 232.14z" />
    <glyph glyph-name="eye"
      unicode="&#xEA21;"
      horiz-adv-x="500" d="M464.29 232.14Q421.88 297.99 357.98 330.64Q375 301.62 375 267.86Q375 216.24 338.31 179.55T250 142.86T161.69 179.55T125 267.86Q125 301.62 142.02 330.64Q78.13 297.99 35.71 232.14Q72.82 174.94 128.77 141.04T250 107.14T371.23 141.04T464.29 232.14zM263.39 339.29Q263.39 344.87 259.49 348.77T250 352.68Q215.12 352.68 190.15 327.71T165.18 267.86Q165.18 262.28 169.08 258.37T178.57 254.46T188.06 258.37T191.96 267.86Q191.96 291.85 208.98 308.87T250 325.89Q255.58 325.89 259.49 329.8T263.39 339.29zM500 232.14Q500 222.66 494.42 212.89Q455.36 148.72 389.37 110.07T250 71.43T110.63 110.21T5.58 212.89Q0 222.66 0 232.14T5.58 251.4Q44.64 315.29 110.63 354.07T250 392.86T389.37 354.07T494.42 251.4Q500 241.63 500 232.14z" />
    <glyph glyph-name="female"
      unicode="&#xEA22;"
      horiz-adv-x="357.14285714285717" d="M357.14 205.36Q357.14 194.2 349.33 186.38T330.36 178.57Q316.13 178.57 308.04 190.57L244.7 285.71H232.14V248.88L301.06 134.21Q303.57 130.02 303.57 125Q303.57 117.75 298.27 112.44T285.71 107.14H232.14V31.25Q232.14 18.42 222.94 9.21T200.89 0H156.25Q143.42 0 134.21 9.21T125 31.25V107.14H71.43Q64.17 107.14 58.87 112.44T53.57 125Q53.57 130.02 56.08 134.21L125 248.88V285.71H112.44L49.11 190.57Q41.02 178.57 26.79 178.57Q15.63 178.57 7.81 186.38T0 205.36Q0 213.45 4.46 220.15L75.89 327.29Q96.26 357.14 125 357.14H232.14Q260.88 357.14 281.25 327.29L352.68 220.15Q357.14 213.45 357.14 205.36zM241.07 428.57Q241.07 402.62 222.8 384.35T178.57 366.07T134.35 384.35T116.07 428.57T134.35 472.8T178.57 491.07T222.8 472.8T241.07 428.57z" />
    <glyph glyph-name="file-pdf-o"
      unicode="&#xEA23;"
      horiz-adv-x="428.57142857142856" d="M409.6 393.97Q417.41 386.16 422.99 372.77T428.57 348.21V26.79Q428.57 15.63 420.76 7.81T401.79 0H26.79Q15.63 0 7.81 7.81T0 26.79V473.21Q0 484.38 7.81 492.19T26.79 500H276.79Q287.95 500 301.34 494.42T322.54 481.03zM285.71 462.05V357.14H390.63Q387.83 365.23 384.49 368.58L297.15 455.92Q293.81 459.26 285.71 462.05zM392.86 35.71V321.43H276.79Q265.63 321.43 257.81 329.24T250 348.21V464.29H35.71V35.71H392.86zM249.44 201.17Q258.65 193.92 272.88 185.55Q289.34 187.5 305.52 187.5Q346.54 187.5 354.91 173.83Q359.38 167.69 355.47 159.32Q355.47 159.04 355.19 158.76L354.63 158.2V157.92Q352.96 147.32 334.82 147.32Q321.43 147.32 302.73 152.9T266.46 167.69Q204.8 160.99 157.09 144.53Q114.4 71.43 89.56 71.43Q85.38 71.43 81.75 73.38L75.06 76.73Q74.78 77.01 73.38 78.13Q70.59 80.92 71.71 88.17Q74.22 99.33 87.33 113.7T124.16 140.63Q128.07 143.14 130.58 138.95Q131.14 138.39 131.14 137.83Q145.65 161.55 160.99 192.8Q179.97 230.75 190.01 265.9Q183.31 288.78 181.5 310.41T183.31 345.98Q186.38 357.14 195.03 357.14H201.17Q207.59 357.14 210.94 352.96Q215.96 347.1 213.45 333.98Q212.89 332.31 212.33 331.75Q212.61 330.92 212.61 329.52V321.15Q212.05 286.83 208.71 267.58Q224.05 221.82 249.44 201.17zM88.73 86.5Q103.24 93.19 126.95 130.58Q112.72 119.42 102.54 107.14T88.73 86.5zM199.78 343.19Q195.59 331.47 199.22 306.36Q199.5 308.31 201.17 318.64Q201.17 319.48 203.13 330.64Q203.4 331.75 204.24 332.87Q203.96 333.15 203.96 333.43Q203.68 333.98 203.68 334.26Q203.4 340.4 200.06 344.31Q200.06 344.03 199.78 343.75V343.19zM165.18 158.76Q202.85 173.83 244.42 181.36Q243.86 181.64 240.79 184.01T236.33 187.78Q215.12 206.47 200.89 236.89Q193.36 212.89 177.73 181.92Q169.36 166.29 165.18 158.76zM345.42 163.23Q338.73 169.92 306.36 169.92Q327.57 162.11 340.96 162.11Q344.87 162.11 345.98 162.39Q345.98 162.67 345.42 163.23z" />
    <glyph glyph-name="folder-o"
      unicode="&#xEA24;"
      horiz-adv-x="464.2857142857143" d="M428.57 133.93V330.36Q428.57 341.52 420.76 349.33T401.79 357.14H205.36Q194.2 357.14 186.38 364.96T178.57 383.93V401.79Q178.57 412.95 170.76 420.76T151.79 428.57H62.5Q51.34 428.57 43.53 420.76T35.71 401.79V133.93Q35.71 122.77 43.53 114.96T62.5 107.14H401.79Q412.95 107.14 420.76 114.96T428.57 133.93zM464.29 330.36V133.93Q464.29 108.26 445.87 89.84T401.79 71.43H62.5Q36.83 71.43 18.42 89.84T0 133.93V401.79Q0 427.46 18.42 445.87T62.5 464.29H151.79Q177.46 464.29 195.87 445.87T214.29 401.79V392.86H401.79Q427.46 392.86 445.87 374.44T464.29 330.36z" />
    <glyph glyph-name="folder-open-o"
      unicode="&#xEA25;"
      horiz-adv-x="535.7142857142858" d="M496.93 240.23Q496.93 250 482.14 250H178.57Q167.41 250 154.72 244T134.77 229.35L52.73 128.07Q47.71 121.37 47.71 116.91Q47.71 107.14 62.5 107.14H366.07Q377.23 107.14 390.07 113.28T409.88 128.07L491.91 229.35Q496.93 235.49 496.93 240.23zM178.57 285.71H392.86V330.36Q392.86 341.52 385.04 349.33T366.07 357.14H205.36Q194.2 357.14 186.38 364.96T178.57 383.93V401.79Q178.57 412.95 170.76 420.76T151.79 428.57H62.5Q51.34 428.57 43.53 420.76T35.71 401.79V163.78L107.14 251.67Q119.42 266.46 139.51 276.09T178.57 285.71zM532.65 240.23Q532.65 222.94 519.81 206.75L437.5 105.47Q425.5 90.68 405.13 81.05T366.07 71.43H62.5Q36.83 71.43 18.42 89.84T0 133.93V401.79Q0 427.46 18.42 445.87T62.5 464.29H151.79Q177.46 464.29 195.87 445.87T214.29 401.79V392.86H366.07Q391.74 392.86 410.16 374.44T428.57 330.36V285.71H482.14Q497.21 285.71 509.77 278.88T528.46 259.21Q532.65 250.28 532.65 240.23z" />
    <glyph glyph-name="folder"
      unicode="&#xEA26;"
      horiz-adv-x="464.2857142857143" d="M464.29 330.36V133.93Q464.29 108.26 445.87 89.84T401.79 71.43H62.5Q36.83 71.43 18.42 89.84T0 133.93V401.79Q0 427.46 18.42 445.87T62.5 464.29H151.79Q177.46 464.29 195.87 445.87T214.29 401.79V392.86H401.79Q427.46 392.86 445.87 374.44T464.29 330.36z" />
    <glyph glyph-name="google-plus"
      unicode="&#xEA27;"
      horiz-adv-x="642.8571428571429" d="M400.95 245.26Q400.95 187.22 376.67 141.88T307.48 71.01T204.52 45.48Q162.95 45.48 125 61.66T59.71 105.19T16.18 170.48T0 250T16.18 329.52T59.71 394.81T125 438.34T204.52 454.52Q284.32 454.52 341.52 400.95L285.99 347.66Q253.35 379.19 204.52 379.19Q170.2 379.19 141.04 361.89T94.87 314.87T77.85 250T94.87 185.13T141.04 138.11T204.52 120.81Q227.68 120.81 247.07 127.23T279.02 143.28T300.92 165.18T314.59 188.34T320.59 208.98H204.52V279.3H397.6Q400.95 261.72 400.95 245.26zM642.86 279.3V220.7H584.54V162.39H525.95V220.7H467.63V279.3H525.95V337.61H584.54V279.3H642.86z" />
    <glyph glyph-name="graduation-cap"
      unicode="&#xEA28;"
      horiz-adv-x="642.8571428571429" d="M494.98 266.74L500 178.57Q501.12 159.32 477.12 142.86T411.55 116.77T321.43 107.14T231.31 116.77T165.74 142.86T142.86 178.57L147.88 266.74L308.04 216.24Q314.17 214.29 321.43 214.29T334.82 216.24zM642.86 357.14Q642.86 350.73 636.72 348.49L324.22 250.28Q323.1 250 321.43 250T318.64 250.28L136.72 307.76Q124.72 298.27 116.91 276.65T107.42 226.84Q125 216.8 125 196.43Q125 177.18 108.82 166.57L125 45.76Q125.56 41.85 122.77 38.78Q120.26 35.71 116.07 35.71H62.5Q58.31 35.71 55.8 38.78Q53.01 41.85 53.57 45.76L69.75 166.57Q53.57 177.18 53.57 196.43Q53.57 216.8 71.71 227.4Q74.78 285.16 99.05 319.48L6.14 348.49Q0 350.73 0 357.14T6.14 365.79L318.64 464.01Q319.75 464.29 321.43 464.29T324.22 464.01L636.72 365.79Q642.86 363.56 642.86 357.14z" />
    <glyph glyph-name="group"
      unicode="&#xEA29;"
      horiz-adv-x="535.7142857142858" d="M165.46 250Q120.26 248.6 91.52 214.29H54.13Q31.25 214.29 15.63 225.59T0 258.65Q0 357.14 34.6 357.14Q36.27 357.14 46.74 351.28T73.94 339.43T107.14 333.43Q125.84 333.43 144.25 339.84Q142.86 329.52 142.86 321.43Q142.86 282.65 165.46 250zM464.29 72.27Q464.29 38.78 443.92 19.39T389.79 0H145.93Q112.17 0 91.8 19.39T71.43 72.27Q71.43 87.05 72.41 101.14T76.31 131.56T83.71 161.83T95.7 189.03T113 211.64T136.86 226.56T167.97 232.14Q170.76 232.14 179.97 226.14T200.33 212.75T230.19 199.36T267.86 193.36T305.52 199.36T335.38 212.75T355.75 226.14T367.75 232.14Q384.77 232.14 398.86 226.56T422.71 211.64T440.01 189.03T452.01 161.83T459.4 131.56T463.31 101.14T464.29 72.27zM178.57 428.57Q178.57 399 157.65 378.07T107.14 357.14T56.64 378.07T35.71 428.57T56.64 479.07T107.14 500T157.65 479.07T178.57 428.57zM375 321.43Q375 277.06 343.61 245.68T267.86 214.29T192.1 245.68T160.71 321.43T192.1 397.18T267.86 428.57T343.61 397.18T375 321.43zM535.71 258.65Q535.71 236.89 520.09 225.59T481.58 214.29H444.2Q415.46 248.6 370.26 250Q392.86 282.65 392.86 321.43Q392.86 329.52 391.46 339.84Q409.88 333.43 428.57 333.43Q445.03 333.43 461.77 339.43T488.98 351.28T501.12 357.14Q535.71 357.14 535.71 258.65zM500 428.57Q500 399 479.07 378.07T428.57 357.14T378.07 378.07T357.14 428.57T378.07 479.07T428.57 500T479.07 479.07T500 428.57z" />
    <glyph glyph-name="headphones"
      unicode="&#xEA2A;"
      horiz-adv-x="464.2857142857143" d="M464.29 252.79Q464.29 206.47 447.54 165.18L441.96 151.51L390.35 142.3Q384.21 119.14 365.09 104.21T321.43 89.29V80.36Q321.43 76.45 318.92 73.94T312.5 71.43H294.64Q290.74 71.43 288.23 73.94T285.71 80.36V241.07Q285.71 244.98 288.23 247.49T294.64 250H312.5Q316.41 250 318.92 247.49T321.43 241.07V232.14Q341.24 232.14 357.7 222.24T383.65 195.59L402.62 198.94Q410.71 225.45 410.71 252.79Q410.71 294.08 386.16 330.64T320.17 388.95T232.14 410.71T144.11 388.95T78.13 330.64T53.57 252.79Q53.57 225.45 61.66 198.94L80.64 195.59Q90.12 212.33 106.58 222.24T142.86 232.14V241.07Q142.86 244.98 145.37 247.49T151.79 250H169.64Q173.55 250 176.06 247.49T178.57 241.07V80.36Q178.57 76.45 176.06 73.94T169.64 71.43H151.79Q147.88 71.43 145.37 73.94T142.86 80.36V89.29Q118.3 89.29 99.19 104.21T73.94 142.3L22.32 151.51L16.74 165.18Q0 206.47 0 252.79Q0 294.92 18.69 333.98T68.64 401.65T142.86 447.27T232.14 464.29T321.43 447.27T395.65 401.65T445.59 333.98T464.29 252.79z" />
    <glyph glyph-name="indent"
      unicode="&#xEA2B;"
      horiz-adv-x="500" d="M98.21 267.86Q98.21 263.95 95.7 261.44L15.35 181.08Q12.83 178.57 8.93 178.57Q5.3 178.57 2.65 181.22T0 187.5V348.21Q0 351.84 2.65 354.49T8.93 357.14Q12.83 357.14 15.35 354.63L95.7 274.27Q98.21 271.76 98.21 267.86zM500 133.93V80.36Q500 76.73 497.35 74.08T491.07 71.43H8.93Q5.3 71.43 2.65 74.08T0 80.36V133.93Q0 137.56 2.65 140.21T8.93 142.86H491.07Q494.7 142.86 497.35 140.21T500 133.93zM500 241.07V187.5Q500 183.87 497.35 181.22T491.07 178.57H187.5Q183.87 178.57 181.22 181.22T178.57 187.5V241.07Q178.57 244.7 181.22 247.35T187.5 250H491.07Q494.7 250 497.35 247.35T500 241.07zM500 348.21V294.64Q500 291.02 497.35 288.36T491.07 285.71H187.5Q183.87 285.71 181.22 288.36T178.57 294.64V348.21Q178.57 351.84 181.22 354.49T187.5 357.14H491.07Q494.7 357.14 497.35 354.49T500 348.21zM500 455.36V401.79Q500 398.16 497.35 395.51T491.07 392.86H8.93Q5.3 392.86 2.65 395.51T0 401.79V455.36Q0 458.98 2.65 461.64T8.93 464.29H491.07Q494.7 464.29 497.35 461.64T500 455.36z" />
    <glyph glyph-name="info-circle"
      unicode="&#xEA2C;"
      horiz-adv-x="428.57142857142856" d="M285.71 116.07V160.71Q285.71 164.62 283.2 167.13T276.79 169.64H250V312.5Q250 316.41 247.49 318.92T241.07 321.43H151.79Q147.88 321.43 145.37 318.92T142.86 312.5V267.86Q142.86 263.95 145.37 261.44T151.79 258.93H178.57V169.64H151.79Q147.88 169.64 145.37 167.13T142.86 160.71V116.07Q142.86 112.17 145.37 109.65T151.79 107.14H276.79Q280.69 107.14 283.2 109.65T285.71 116.07zM250 366.07V410.71Q250 414.62 247.49 417.13T241.07 419.64H187.5Q183.59 419.64 181.08 417.13T178.57 410.71V366.07Q178.57 362.17 181.08 359.65T187.5 357.14H241.07Q244.98 357.14 247.49 359.65T250 366.07zM428.57 250Q428.57 191.69 399.83 142.44T321.85 64.45T214.29 35.71T106.72 64.45T28.74 142.44T0 250T28.74 357.56T106.72 435.55T214.29 464.29T321.85 435.55T399.83 357.56T428.57 250z" />
    <glyph glyph-name="italic"
      unicode="&#xEA2D;"
      horiz-adv-x="285.7142857142857" d="M0 36.27L4.74 59.99Q10.88 61.94 21.9 64.59T41.99 69.89T58.59 76.45Q66.41 86.22 70.03 104.63Q70.31 106.58 87.33 185.27T119.14 336.91T133.65 419.64V426.62Q126.95 430.25 118.44 431.78T99.05 434.01T82.87 435.55L88.17 464.29Q97.38 463.73 121.65 462.47T163.36 460.52T196.99 459.82Q210.38 459.82 224.47 460.52T258.23 462.47T285.71 464.29Q284.32 453.4 280.41 439.45Q272.04 436.66 252.09 431.5T221.82 422.15Q219.59 416.85 217.91 410.3T215.4 399.14T213.31 386.44T211.5 374.72Q203.96 333.43 187.08 257.67T165.46 158.48Q164.9 155.97 161.83 142.3T156.25 117.19T151.79 93.89T150.11 77.85L150.39 72.82Q155.13 71.71 202.01 64.17Q201.17 51.9 197.54 36.55Q194.48 36.55 188.48 36.13T179.41 35.71Q171.32 35.71 155.13 38.5T131.14 41.29Q92.63 41.85 73.66 41.85Q59.43 41.85 33.76 39.34T0 36.27z" />
    <glyph glyph-name="level-down"
      unicode="&#xEA2E;"
      horiz-adv-x="285.7142857142857" d="M8.93 428.57H205.36Q208.98 428.57 211.64 425.92T214.29 419.36V178.57H267.86Q279.02 178.57 284.04 168.25T281.53 149L192.24 41.85Q187.22 35.71 178.57 35.71T164.9 41.85L75.61 149Q68.36 157.65 73.1 168.25Q78.13 178.57 89.29 178.57H142.86V357.14H53.57Q49.67 357.14 46.6 360.21L1.95 413.78Q-1.67 417.69 0.84 423.27Q3.35 428.57 8.93 428.57z" />
    <glyph glyph-name="level-up"
      unicode="&#xEA2F;"
      horiz-adv-x="285.7142857142857" d="M284.04 331.75Q279.02 321.43 267.86 321.43H214.29V80.36Q214.29 76.45 211.77 73.94T205.36 71.43H8.93Q3.07 71.43 0.84 76.45Q-1.4 82.03 1.95 86.22L46.6 139.79Q49.11 142.86 53.57 142.86H142.86V321.43H89.29Q78.13 321.43 73.1 331.75Q68.36 342.08 75.61 350.73L164.9 457.87Q169.92 464.01 178.57 464.01T192.24 457.87L281.53 350.73Q289.06 341.8 284.04 331.75z" />
    <glyph glyph-name="line-chart"
      unicode="&#xEA30;"
      horiz-adv-x="571.4285714285714" d="M571.43 71.43V35.71H0V464.29H35.71V71.43H571.43zM535.71 419.64V298.27Q535.71 292.41 530.27 290.04T520.37 292.13L486.61 325.89L309.99 149.27Q307.2 146.48 303.57 146.48T297.15 149.27L232.14 214.29L116.07 98.21L62.5 151.79L225.73 315.01Q228.52 317.8 232.14 317.8T238.56 315.01L303.57 250L433.04 379.46L399.27 413.23Q394.81 417.69 397.18 423.13T405.41 428.57H526.79Q530.69 428.57 533.2 426.06T535.71 419.64z" />
    <glyph glyph-name="list-ol"
      unicode="&#xEA31;"
      horiz-adv-x="500" d="M106.31 47.99Q106.31 25.67 91.1 12.83T53.29 0Q23.72 0 5.3 18.42L21.21 42.97Q34.88 30.41 50.78 30.41Q58.87 30.41 64.87 34.46T70.87 46.32Q70.87 64.17 41.57 61.94L34.32 77.57Q36.55 80.36 43.39 89.7T55.25 104.77T65.57 115.51V115.79Q61.1 115.79 52.04 115.51T38.5 115.23V100.45H8.93V142.86H101.84V118.3L75.33 86.22Q89.56 82.87 97.94 72.54T106.31 47.99zM106.86 222.94V178.57H5.86Q4.19 188.62 4.19 193.64Q4.19 207.87 10.74 219.59T26.51 238.56T44.92 251.81T60.69 263.95T67.24 276.51Q67.24 283.48 63.2 287.25T52.18 291.02Q39.34 291.02 29.58 274.83L5.86 291.29Q12.56 305.52 25.81 313.48T55.25 321.43Q75.61 321.43 89.56 309.85T103.52 278.46Q103.52 264.51 94.03 252.93T73.1 234.93T52.04 220.84T42.13 206.19H77.57V222.94H106.86zM500 133.93V80.36Q500 76.73 497.35 74.08T491.07 71.43H151.79Q148.16 71.43 145.51 74.08T142.86 80.36V133.93Q142.86 137.83 145.37 140.35T151.79 142.86H491.07Q494.7 142.86 497.35 140.21T500 133.93zM107.14 384.77V357.14H13.67V384.77H43.53Q43.53 396.21 43.67 418.67T43.81 452.57V455.92H43.25Q41.02 451.17 29.3 440.85L9.49 462.05L47.43 497.49H77.01V384.77H107.14zM500 276.79V223.21Q500 219.59 497.35 216.94T491.07 214.29H151.79Q148.16 214.29 145.51 216.94T142.86 223.21V276.79Q142.86 280.69 145.37 283.2T151.79 285.71H491.07Q494.7 285.71 497.35 283.06T500 276.79zM500 419.64V366.07Q500 362.44 497.35 359.79T491.07 357.14H151.79Q148.16 357.14 145.51 359.79T142.86 366.07V419.64Q142.86 423.27 145.51 425.92T151.79 428.57H491.07Q494.7 428.57 497.35 425.92T500 419.64z" />
    <glyph glyph-name="list-ul"
      unicode="&#xEA32;"
      horiz-adv-x="500" d="M107.14 107.14Q107.14 84.82 91.52 69.2T53.57 53.57T15.63 69.2T0 107.14T15.63 145.09T53.57 160.71T91.52 145.09T107.14 107.14zM107.14 250Q107.14 227.68 91.52 212.05T53.57 196.43T15.63 212.05T0 250T15.63 287.95T53.57 303.57T91.52 287.95T107.14 250zM500 133.93V80.36Q500 76.73 497.35 74.08T491.07 71.43H151.79Q148.16 71.43 145.51 74.08T142.86 80.36V133.93Q142.86 137.56 145.51 140.21T151.79 142.86H491.07Q494.7 142.86 497.35 140.21T500 133.93zM107.14 392.86Q107.14 370.54 91.52 354.91T53.57 339.29T15.63 354.91T0 392.86T15.63 430.8T53.57 446.43T91.52 430.8T107.14 392.86zM500 276.79V223.21Q500 219.59 497.35 216.94T491.07 214.29H151.79Q148.16 214.29 145.51 216.94T142.86 223.21V276.79Q142.86 280.41 145.51 283.06T151.79 285.71H491.07Q494.7 285.71 497.35 283.06T500 276.79zM500 419.64V366.07Q500 362.44 497.35 359.79T491.07 357.14H151.79Q148.16 357.14 145.51 359.79T142.86 366.07V419.64Q142.86 423.27 145.51 425.92T151.79 428.57H491.07Q494.7 428.57 497.35 425.92T500 419.64z" />
    <glyph glyph-name="list"
      unicode="&#xEA33;"
      horiz-adv-x="500" d="M71.43 133.93V80.36Q71.43 76.73 68.78 74.08T62.5 71.43H8.93Q5.3 71.43 2.65 74.08T0 80.36V133.93Q0 137.56 2.65 140.21T8.93 142.86H62.5Q66.13 142.86 68.78 140.21T71.43 133.93zM71.43 241.07V187.5Q71.43 183.87 68.78 181.22T62.5 178.57H8.93Q5.3 178.57 2.65 181.22T0 187.5V241.07Q0 244.7 2.65 247.35T8.93 250H62.5Q66.13 250 68.78 247.35T71.43 241.07zM71.43 348.21V294.64Q71.43 291.02 68.78 288.36T62.5 285.71H8.93Q5.3 285.71 2.65 288.36T0 294.64V348.21Q0 351.84 2.65 354.49T8.93 357.14H62.5Q66.13 357.14 68.78 354.49T71.43 348.21zM500 133.93V80.36Q500 76.73 497.35 74.08T491.07 71.43H116.07Q112.44 71.43 109.79 74.08T107.14 80.36V133.93Q107.14 137.56 109.79 140.21T116.07 142.86H491.07Q494.7 142.86 497.35 140.21T500 133.93zM71.43 455.36V401.79Q71.43 398.16 68.78 395.51T62.5 392.86H8.93Q5.3 392.86 2.65 395.51T0 401.79V455.36Q0 458.98 2.65 461.64T8.93 464.29H62.5Q66.13 464.29 68.78 461.64T71.43 455.36zM500 241.07V187.5Q500 183.87 497.35 181.22T491.07 178.57H116.07Q112.44 178.57 109.79 181.22T107.14 187.5V241.07Q107.14 244.7 109.79 247.35T116.07 250H491.07Q494.7 250 497.35 247.35T500 241.07zM500 348.21V294.64Q500 291.02 497.35 288.36T491.07 285.71H116.07Q112.44 285.71 109.79 288.36T107.14 294.64V348.21Q107.14 351.84 109.79 354.49T116.07 357.14H491.07Q494.7 357.14 497.35 354.49T500 348.21zM500 455.36V401.79Q500 398.16 497.35 395.51T491.07 392.86H116.07Q112.44 392.86 109.79 395.51T107.14 401.79V455.36Q107.14 458.98 109.79 461.64T116.07 464.29H491.07Q494.7 464.29 497.35 461.64T500 455.36z" />
    <glyph glyph-name="lock"
      unicode="&#xEA34;"
      horiz-adv-x="321.42857142857144" d="M89.29 285.71H232.14V339.29Q232.14 368.86 211.22 389.79T160.71 410.71T110.21 389.79T89.29 339.29V285.71zM321.43 258.93V98.21Q321.43 87.05 313.62 79.24T294.64 71.43H26.79Q15.63 71.43 7.81 79.24T0 98.21V258.93Q0 270.09 7.81 277.9T26.79 285.71H35.71V339.29Q35.71 390.63 72.54 427.46T160.71 464.29T248.88 427.46T285.71 339.29V285.71H294.64Q305.8 285.71 313.62 277.9T321.43 258.93z" />
    <glyph glyph-name="mail-forward"
      unicode="&#xEA35;"
      horiz-adv-x="500" d="M500 321.43Q500 314.17 494.7 308.87L351.84 166.02Q346.54 160.71 339.29 160.71T326.73 166.02T321.43 178.57V250H258.93Q231.58 250 209.96 248.33T166.99 242.33T129.88 230.47T100.45 211.08T78.13 182.9T64.59 144.25T59.71 93.75Q59.71 78.4 61.1 59.43Q61.1 57.76 61.8 52.87T62.5 45.48Q62.5 41.29 60.13 38.5T53.57 35.71Q49.11 35.71 45.76 40.46Q43.81 42.97 42.13 46.6T38.36 54.97T35.44 61.66Q0 141.18 0 187.5Q0 243.02 14.79 280.41Q59.99 392.86 258.93 392.86H321.43V464.29Q321.43 471.54 326.73 476.84T339.29 482.14T351.84 476.84L494.7 333.98Q500 328.68 500 321.43z" />
    <glyph glyph-name="mail-reply"
      unicode="&#xEA36;"
      horiz-adv-x="500" d="M500 187.5Q500 141.18 464.56 61.66Q463.73 59.71 461.64 54.97T457.87 46.6T454.24 40.46Q450.89 35.71 446.43 35.71Q442.24 35.71 439.87 38.5T437.5 45.48Q437.5 47.99 438.2 52.87T438.9 59.43Q440.29 78.4 440.29 93.75Q440.29 121.93 435.41 144.25T421.88 182.9T399.55 211.08T370.12 230.47T333.01 242.33T290.04 248.33T241.07 250H178.57V178.57Q178.57 171.32 173.27 166.02T160.71 160.71T148.16 166.02L5.3 308.87Q0 314.17 0 321.43T5.3 333.98L148.16 476.84Q153.46 482.14 160.71 482.14T173.27 476.84T178.57 464.29V392.86H241.07Q440.01 392.86 485.21 280.41Q500 243.02 500 187.5z" />
    <glyph glyph-name="male"
      unicode="&#xEA37;"
      horiz-adv-x="285.7142857142857" d="M285.71 303.57V187.5Q285.71 176.34 277.9 168.53T258.93 160.71T239.96 168.53T232.14 187.5V285.71H214.29V31.25Q214.29 18.42 205.08 9.21T183.04 0T160.99 9.21T151.79 31.25V160.71H133.93V31.25Q133.93 18.42 124.72 9.21T102.68 0T80.64 9.21T71.43 31.25V285.71H53.57V187.5Q53.57 176.34 45.76 168.53T26.79 160.71T7.81 168.53T0 187.5V303.57Q0 325.89 15.63 341.52T53.57 357.14H232.14Q254.46 357.14 270.09 341.52T285.71 303.57zM205.36 428.57Q205.36 402.62 187.08 384.35T142.86 366.07T98.63 384.35T80.36 428.57T98.63 472.8T142.86 491.07T187.08 472.8T205.36 428.57z" />
    <glyph glyph-name="map-marker"
      unicode="&#xEA38;"
      horiz-adv-x="285.7142857142857" d="M214.29 321.43Q214.29 351 193.36 371.93T142.86 392.86T92.35 371.93T71.43 321.43T92.35 270.93T142.86 250T193.36 270.93T214.29 321.43zM285.71 321.43Q285.71 291.02 276.51 271.48L174.94 55.52Q170.48 46.32 161.69 41.02T142.86 35.71T124.02 41.02T111.05 55.52L9.21 271.48Q0 291.02 0 321.43Q0 380.58 41.85 422.43T142.86 464.29T243.86 422.43T285.71 321.43z" />
    <glyph glyph-name="pencil"
      unicode="&#xEA39;"
      horiz-adv-x="428.57142857142856" d="M101.28 71.43L126.67 96.82L61.1 162.39L35.71 137V107.14H71.43V71.43H101.28zM247.21 330.36Q247.21 336.5 241.07 336.5Q238.28 336.5 236.33 334.54L85.1 183.31Q83.15 181.36 83.15 178.57Q83.15 172.43 89.29 172.43Q92.08 172.43 94.03 174.39L245.26 325.61Q247.21 327.57 247.21 330.36zM232.14 383.93L348.21 267.86L116.07 35.71H0V151.79zM422.71 357.14Q422.71 342.35 412.39 332.03L366.07 285.71L250 401.79L296.32 447.82Q306.36 458.43 321.43 458.43Q336.22 458.43 346.82 447.82L412.39 382.53Q422.71 371.65 422.71 357.14z" />
    <glyph glyph-name="phone"
      unicode="&#xEA3A;"
      horiz-adv-x="392.8571428571429" d="M392.86 154.02Q392.86 146.48 390.07 134.35T384.21 115.23Q378.35 101.28 350.17 85.66Q323.94 71.43 298.27 71.43Q290.74 71.43 283.48 72.41T267.44 75.89T254.32 79.94T238.84 85.66T225.17 90.68Q197.82 100.45 176.34 113.84Q140.9 135.88 102.68 174.11T42.41 247.77Q29.02 269.25 19.25 296.6Q18.42 299.11 14.23 310.27T8.51 325.75T4.46 338.87T0.98 354.91T0 369.7Q0 395.37 14.23 421.6Q29.85 449.78 43.81 455.64Q50.78 458.71 62.92 461.5T82.59 464.29Q86.5 464.29 88.45 463.45Q93.47 461.77 103.24 442.24Q106.31 436.94 111.61 427.18T121.37 409.46T130.02 394.53Q130.86 393.42 134.91 387.56T140.9 377.65T142.86 369.7Q142.86 364.12 134.91 355.75T117.61 340.4T100.31 325.61T92.35 312.78Q92.35 310.27 93.75 306.5T96.12 300.78T100.03 294.08T103.24 288.78Q124.44 250.56 151.79 223.21T217.35 174.67Q217.91 174.39 222.66 171.46T229.35 167.55T235.07 165.18T241.35 163.78Q246.37 163.78 254.19 171.74T268.97 189.03T284.32 206.33T298.27 214.29Q302.18 214.29 306.22 212.33T316.13 206.33T323.1 201.45Q330.08 197.27 338.03 192.8T355.75 183.04T370.81 174.67Q390.35 164.9 392.02 159.88Q392.86 157.92 392.86 154.02z" />
    <glyph glyph-name="plus-circle"
      unicode="&#xEA3B;"
      horiz-adv-x="428.57142857142856" d="M339.29 232.14V267.86Q339.29 275.11 333.98 280.41T321.43 285.71H250V357.14Q250 364.4 244.7 369.7T232.14 375H196.43Q189.17 375 183.87 369.7T178.57 357.14V285.71H107.14Q99.89 285.71 94.59 280.41T89.29 267.86V232.14Q89.29 224.89 94.59 219.59T107.14 214.29H178.57V142.86Q178.57 135.6 183.87 130.3T196.43 125H232.14Q239.4 125 244.7 130.3T250 142.86V214.29H321.43Q328.68 214.29 333.98 219.59T339.29 232.14zM428.57 250Q428.57 191.69 399.83 142.44T321.85 64.45T214.29 35.71T106.72 64.45T28.74 142.44T0 250T28.74 357.56T106.72 435.55T214.29 464.29T321.85 435.55T399.83 357.56T428.57 250z" />
    <glyph glyph-name="plus"
      unicode="&#xEA3C;"
      horiz-adv-x="392.8571428571429" d="M392.86 294.64V241.07Q392.86 229.91 385.04 222.1T366.07 214.29H250V98.21Q250 87.05 242.19 79.24T223.21 71.43H169.64Q158.48 71.43 150.67 79.24T142.86 98.21V214.29H26.79Q15.63 214.29 7.81 222.1T0 241.07V294.64Q0 305.8 7.81 313.62T26.79 321.43H142.86V437.5Q142.86 448.66 150.67 456.47T169.64 464.29H223.21Q234.38 464.29 242.19 456.47T250 437.5V321.43H366.07Q377.23 321.43 385.04 313.62T392.86 294.64z" />
    <glyph glyph-name="print"
      unicode="&#xEA3D;"
      horiz-adv-x="464.2857142857143" d="M107.14 71.43H357.14V142.86H107.14V71.43zM107.14 250H357.14V357.14H312.5Q301.34 357.14 293.53 364.96T285.71 383.93V428.57H107.14V250zM428.57 232.14Q428.57 239.4 423.27 244.7T410.71 250T398.16 244.7T392.86 232.14T398.16 219.59T410.71 214.29T423.27 219.59T428.57 232.14zM464.29 232.14V116.07Q464.29 112.44 461.64 109.79T455.36 107.14H392.86V62.5Q392.86 51.34 385.04 43.53T366.07 35.71H98.21Q87.05 35.71 79.24 43.53T71.43 62.5V107.14H8.93Q5.3 107.14 2.65 109.79T0 116.07V232.14Q0 254.19 15.76 269.95T53.57 285.71H71.43V437.5Q71.43 448.66 79.24 456.47T98.21 464.29H285.71Q296.88 464.29 310.27 458.71T331.47 445.31L373.88 402.9Q381.7 395.09 387.28 381.7T392.86 357.14V285.71H410.71Q432.76 285.71 448.52 269.95T464.29 232.14z" />
    <glyph glyph-name="search"
      unicode="&#xEA3E;"
      horiz-adv-x="464.2857142857143" d="M321.43 267.86Q321.43 319.48 284.74 356.17T196.43 392.86T108.12 356.17T71.43 267.86T108.12 179.55T196.43 142.86T284.74 179.55T321.43 267.86zM464.29 35.71Q464.29 21.21 453.68 10.6T428.57 0Q413.5 0 403.46 10.6L307.76 106.03Q257.81 71.43 196.43 71.43Q156.53 71.43 120.12 86.91T57.34 128.77T15.49 191.55T0 267.86T15.49 344.17T57.34 406.95T120.12 448.8T196.43 464.29T272.74 448.8T335.52 406.95T377.37 344.17T392.86 267.86Q392.86 206.47 358.26 156.53L453.96 60.83Q464.29 50.5 464.29 35.71z" />
    <glyph glyph-name="shield"
      unicode="&#xEA3F;"
      horiz-adv-x="357.14285714285717" d="M303.57 232.14V410.71H178.57V93.47Q211.77 111.05 238 131.7Q303.57 183.04 303.57 232.14zM357.14 446.43V232.14Q357.14 208.15 347.8 184.57T324.64 142.72T291.71 107.14T256.42 78.4T222.66 56.78T197.68 42.97T185.83 37.39Q182.48 35.71 178.57 35.71T171.32 37.39Q166.85 39.34 159.46 42.97T134.49 56.78T100.73 78.4T65.43 107.14T32.51 142.72T9.35 184.57T0 232.14V446.43Q0 453.68 5.3 458.98T17.86 464.29H339.29Q346.54 464.29 351.84 458.98T357.14 446.43z" />
    <glyph glyph-name="sliders"
      unicode="&#xEA40;"
      horiz-adv-x="428.57142857142856" d="M98.21 107.14V71.43H0V107.14H98.21zM196.43 142.86Q203.68 142.86 208.98 137.56T214.29 125V53.57Q214.29 46.32 208.98 41.02T196.43 35.71H125Q117.75 35.71 112.44 41.02T107.14 53.57V125Q107.14 132.25 112.44 137.56T125 142.86H196.43zM241.07 250V214.29H0V250H241.07zM62.5 392.86V357.14H0V392.86H62.5zM428.57 107.14V71.43H223.21V107.14H428.57zM160.71 428.57Q167.97 428.57 173.27 423.27T178.57 410.71V339.29Q178.57 332.03 173.27 326.73T160.71 321.43H89.29Q82.03 321.43 76.73 326.73T71.43 339.29V410.71Q71.43 417.97 76.73 423.27T89.29 428.57H160.71zM339.29 285.71Q346.54 285.71 351.84 280.41T357.14 267.86V196.43Q357.14 189.17 351.84 183.87T339.29 178.57H267.86Q260.6 178.57 255.3 183.87T250 196.43V267.86Q250 275.11 255.3 280.41T267.86 285.71H339.29zM428.57 250V214.29H366.07V250H428.57zM428.57 392.86V357.14H187.5V392.86H428.57z" />
    <glyph glyph-name="sort-amount-desc"
      unicode="&#xEA41;"
      horiz-adv-x="500" d="M339.29 62.5V8.93Q339.29 5.02 336.77 2.51T330.36 0H258.93Q255.02 0 252.51 2.51T250 8.93V62.5Q250 66.41 252.51 68.92T258.93 71.43H330.36Q334.26 71.43 336.77 68.92T339.29 62.5zM205.36 98.21Q205.36 94.87 202.57 91.52L113.56 2.51Q110.77 0 107.14 0Q103.79 0 100.73 2.51L11.44 91.8Q7.25 96.26 9.49 101.56Q11.72 107.14 17.86 107.14H71.43V491.07Q71.43 494.98 73.94 497.49T80.36 500H133.93Q137.83 500 140.35 497.49T142.86 491.07V107.14H196.43Q200.33 107.14 202.85 104.63T205.36 98.21zM392.86 205.36V151.79Q392.86 147.88 390.35 145.37T383.93 142.86H258.93Q255.02 142.86 252.51 145.37T250 151.79V205.36Q250 209.26 252.51 211.77T258.93 214.29H383.93Q387.83 214.29 390.35 211.77T392.86 205.36zM446.43 348.21V294.64Q446.43 290.74 443.92 288.23T437.5 285.71H258.93Q255.02 285.71 252.51 288.23T250 294.64V348.21Q250 352.12 252.51 354.63T258.93 357.14H437.5Q441.41 357.14 443.92 354.63T446.43 348.21zM500 491.07V437.5Q500 433.59 497.49 431.08T491.07 428.57H258.93Q255.02 428.57 252.51 431.08T250 437.5V491.07Q250 494.98 252.51 497.49T258.93 500H491.07Q494.98 500 497.49 497.49T500 491.07z" />
    <glyph glyph-name="star"
      unicode="&#xEA42;"
      horiz-adv-x="464.2857142857143" d="M464.29 319.48Q464.29 313.34 457.03 306.08L355.75 207.31L379.74 67.8Q380.02 65.85 380.02 62.22Q380.02 56.36 377.09 52.32T368.58 48.27Q363.28 48.27 357.42 51.62L232.14 117.47L106.86 51.62Q100.73 48.27 95.7 48.27Q89.84 48.27 86.91 52.32T83.98 62.22Q83.98 63.9 84.54 67.8L108.54 207.31L6.98 306.08Q0 313.62 0 319.48Q0 329.8 15.63 332.31L155.69 352.68L218.47 479.63Q223.77 491.07 232.14 491.07T245.81 479.63L308.59 352.68L448.66 332.31Q464.29 329.8 464.29 319.48z" />
    <glyph glyph-name="subscript"
      unicode="&#xEA43;"
      horiz-adv-x="428.57142857142856" d="M250.28 118.02V71.43H181.08L136.72 141.74L130.02 153.46Q127.79 155.97 126.95 159.32H126.12Q125.84 158.48 125.42 157.51T124.44 155.27T123.6 153.46Q120.81 147.88 116.63 141.18L73.38 71.43H1.4V118.02H37.11L92.08 199.22L40.46 275.11H2.23V321.99H79.24L118.02 258.37Q118.58 257.25 124.44 246.65Q126.67 244.14 127.51 240.79H128.35Q129.19 243.3 131.42 246.65L138.39 258.37L177.46 321.99H249.16V275.11H214.29L162.95 200.61L219.87 118.02H250.28zM428.57 57.48V0H285.16L284.04 7.53Q283.2 20.09 283.2 20.37Q283.2 38.23 290.46 53.01T308.59 77.15T332.03 95.28T355.47 110.49T373.6 125.56T380.86 143.42Q380.86 154.02 372.63 160.85T352.96 167.69Q338.73 167.69 325.89 156.81Q321.99 153.74 315.85 146.21L286.55 171.88Q293.81 182.2 304.13 190.29Q326.45 208.43 356.58 208.43Q387.28 208.43 406.25 191.82T425.22 147.6Q425.22 129.19 415.6 114.54T392.16 90.54T364.4 73.1T340.12 55.52T328.68 35.16H393.42V57.48H428.57z" />
    <glyph glyph-name="superscript"
      unicode="&#xEA44;"
      horiz-adv-x="428.57142857142856" d="M250.28 118.02V71.43H181.08L136.72 141.74L130.02 153.46Q127.79 155.97 126.95 159.32H126.12Q125.84 158.48 125.42 157.51T124.44 155.27T123.6 153.46Q120.81 147.88 116.63 141.18L73.38 71.43H1.4V118.02H37.11L92.08 199.22L40.46 275.11H2.23V321.99H79.24L118.02 258.37Q118.58 257.25 124.44 246.65Q126.67 244.14 127.51 240.79H128.35Q129.19 243.3 131.42 246.65L138.39 258.37L177.46 321.99H249.16V275.11H214.29L162.95 200.61L219.87 118.02H250.28zM428.01 307.48V250H284.6L283.76 257.53Q282.65 265.35 282.65 270.37Q282.65 288.23 289.9 303.01T308.04 327.15T331.47 345.28T354.91 360.49T373.05 375.56T380.3 393.42Q380.3 404.02 372.07 410.85T352.4 417.69Q338.17 417.69 325.33 406.81Q321.43 403.74 315.29 396.21L285.99 421.88Q293.25 432.2 303.57 440.29Q326.73 458.43 356.03 458.43Q386.72 458.43 405.69 441.82T424.67 397.6Q424.67 381.98 417.83 368.86T400.53 347.52T377.79 331.19T354.91 317.1T336.64 302.73T328.13 285.16H392.86V307.48H428.01z" />
    <glyph glyph-name="table"
      unicode="&#xEA45;"
      horiz-adv-x="464.2857142857143" d="M142.86 116.07V169.64Q142.86 173.55 140.35 176.06T133.93 178.57H44.64Q40.74 178.57 38.23 176.06T35.71 169.64V116.07Q35.71 112.17 38.23 109.65T44.64 107.14H133.93Q137.83 107.14 140.35 109.65T142.86 116.07zM142.86 223.21V276.79Q142.86 280.69 140.35 283.2T133.93 285.71H44.64Q40.74 285.71 38.23 283.2T35.71 276.79V223.21Q35.71 219.31 38.23 216.8T44.64 214.29H133.93Q137.83 214.29 140.35 216.8T142.86 223.21zM285.71 116.07V169.64Q285.71 173.55 283.2 176.06T276.79 178.57H187.5Q183.59 178.57 181.08 176.06T178.57 169.64V116.07Q178.57 112.17 181.08 109.65T187.5 107.14H276.79Q280.69 107.14 283.2 109.65T285.71 116.07zM142.86 330.36V383.93Q142.86 387.83 140.35 390.35T133.93 392.86H44.64Q40.74 392.86 38.23 390.35T35.71 383.93V330.36Q35.71 326.45 38.23 323.94T44.64 321.43H133.93Q137.83 321.43 140.35 323.94T142.86 330.36zM285.71 223.21V276.79Q285.71 280.69 283.2 283.2T276.79 285.71H187.5Q183.59 285.71 181.08 283.2T178.57 276.79V223.21Q178.57 219.31 181.08 216.8T187.5 214.29H276.79Q280.69 214.29 283.2 216.8T285.71 223.21zM428.57 116.07V169.64Q428.57 173.55 426.06 176.06T419.64 178.57H330.36Q326.45 178.57 323.94 176.06T321.43 169.64V116.07Q321.43 112.17 323.94 109.65T330.36 107.14H419.64Q423.55 107.14 426.06 109.65T428.57 116.07zM285.71 330.36V383.93Q285.71 387.83 283.2 390.35T276.79 392.86H187.5Q183.59 392.86 181.08 390.35T178.57 383.93V330.36Q178.57 326.45 181.08 323.94T187.5 321.43H276.79Q280.69 321.43 283.2 323.94T285.71 330.36zM428.57 223.21V276.79Q428.57 280.69 426.06 283.2T419.64 285.71H330.36Q326.45 285.71 323.94 283.2T321.43 276.79V223.21Q321.43 219.31 323.94 216.8T330.36 214.29H419.64Q423.55 214.29 426.06 216.8T428.57 223.21zM428.57 330.36V383.93Q428.57 387.83 426.06 390.35T419.64 392.86H330.36Q326.45 392.86 323.94 390.35T321.43 383.93V330.36Q321.43 326.45 323.94 323.94T330.36 321.43H419.64Q423.55 321.43 426.06 323.94T428.57 330.36zM464.29 419.64V116.07Q464.29 97.66 451.17 84.54T419.64 71.43H44.64Q26.23 71.43 13.11 84.54T0 116.07V419.64Q0 438.06 13.11 451.17T44.64 464.29H419.64Q438.06 464.29 451.17 451.17T464.29 419.64z" />
    <glyph glyph-name="th-large"
      unicode="&#xEA46;"
      horiz-adv-x="464.2857142857143" d="M214.29 214.29V107.14Q214.29 92.63 203.68 82.03T178.57 71.43H35.71Q21.21 71.43 10.6 82.03T0 107.14V214.29Q0 228.79 10.6 239.4T35.71 250H178.57Q193.08 250 203.68 239.4T214.29 214.29zM214.29 428.57V321.43Q214.29 306.92 203.68 296.32T178.57 285.71H35.71Q21.21 285.71 10.6 296.32T0 321.43V428.57Q0 443.08 10.6 453.68T35.71 464.29H178.57Q193.08 464.29 203.68 453.68T214.29 428.57zM464.29 214.29V107.14Q464.29 92.63 453.68 82.03T428.57 71.43H285.71Q271.21 71.43 260.6 82.03T250 107.14V214.29Q250 228.79 260.6 239.4T285.71 250H428.57Q443.08 250 453.68 239.4T464.29 214.29zM464.29 428.57V321.43Q464.29 306.92 453.68 296.32T428.57 285.71H285.71Q271.21 285.71 260.6 296.32T250 321.43V428.57Q250 443.08 260.6 453.68T285.71 464.29H428.57Q443.08 464.29 453.68 453.68T464.29 428.57z" />
    <glyph glyph-name="trash"
      unicode="&#xEA47;"
      horiz-adv-x="392.8571428571429" d="M142.86 116.07V312.5Q142.86 316.41 140.35 318.92T133.93 321.43H116.07Q112.17 321.43 109.65 318.92T107.14 312.5V116.07Q107.14 112.17 109.65 109.65T116.07 107.14H133.93Q137.83 107.14 140.35 109.65T142.86 116.07zM214.29 116.07V312.5Q214.29 316.41 211.77 318.92T205.36 321.43H187.5Q183.59 321.43 181.08 318.92T178.57 312.5V116.07Q178.57 112.17 181.08 109.65T187.5 107.14H205.36Q209.26 107.14 211.77 109.65T214.29 116.07zM285.71 116.07V312.5Q285.71 316.41 283.2 318.92T276.79 321.43H258.93Q255.02 321.43 252.51 318.92T250 312.5V116.07Q250 112.17 252.51 109.65T258.93 107.14H276.79Q280.69 107.14 283.2 109.65T285.71 116.07zM133.93 392.86H258.93L245.54 425.5Q243.58 428.01 240.79 428.57H152.34Q149.55 428.01 147.6 425.5zM392.86 383.93V366.07Q392.86 362.17 390.35 359.65T383.93 357.14H357.14V92.63Q357.14 69.48 344.03 52.59T312.5 35.71H80.36Q61.94 35.71 48.83 52.04T35.71 91.52V357.14H8.93Q5.02 357.14 2.51 359.65T0 366.07V383.93Q0 387.83 2.51 390.35T8.93 392.86H95.15L114.68 439.45Q118.86 449.78 129.74 457.03T151.79 464.29H241.07Q252.23 464.29 263.11 457.03T278.18 439.45L297.71 392.86H383.93Q387.83 392.86 390.35 390.35T392.86 383.93z" />
    <glyph glyph-name="tud_actions_copy"
      unicode="&#xEA48;"
      horiz-adv-x="500" d="M500 366.08V26.82C500 12 488 0 473.25 0H205.33C190.58 0 178.57 12 178.57 26.8V107.13H26.75C12 107.13 0 119.13 0 133.92V321.42C0 336.17 8.67 356.85 18.95 367.17L132.82 481C143.15 491.33 163.78 500 178.58 500H294.7C309.45 500 321.45 488 321.45 473.2V381.67C332.35 388.1 346.25 392.88 357.15 392.88H473.28C488 392.88 500 380.85 500 366.08zM285.73 348.25V464.28H178.58V348.25C178.58 333.42 166.6 321.45 151.82 321.45H35.73V142.88H178.58V214.27C178.58 229.05 187.25 249.7 197.53 260.05L285.73 348.25zM59.43 357.13H142.88V440.58L59.43 357.13zM464.28 357.13H357.13V241.08C357.13 226.25 345.15 214.28 330.38 214.28H214.28V35.7H464.28V357.13zM238 250H321.45V333.42L238 250z" />
    <glyph glyph-name="tud_actions_cut"
      unicode="&#xEA49;"
      horiz-adv-x="500" d="M492.98 138.95C497.98 135.35 500.5 129.18 499.93 123.32C499.08 117.23 495.45 111.9 490.15 109.1L454.43 91.27C451.9 89.85 449.15 89.32 446.35 89.32C443.3 89.32 440.23 90.13 437.68 91.53L245.2 199.5L214.53 181.08C213.38 180.52 212.28 179.98 211.18 179.7C213.65 171.08 214.8 161.83 213.93 152.6C211.4 123.9 192.18 96.57 161.5 77.05C137.8 62 110.4 53.6 84.23 53.6C59.08 53.6 37.88 61.1 22.25 75.33C6.35 90.13 -1.72 111.35 0.23 133.1C2.75 161.58 21.98 189.18 52.4 208.73C76.1 223.78 103.75 232.18 129.93 232.18C145.6 232.18 159.78 229.08 172.08 223.5C173.73 225.98 175.7 227.93 178.23 229.63L212.25 249.95L178.28 270.33C175.73 272 173.77 273.95 172.13 276.5C159.85 270.9 145.65 267.85 129.98 267.85C103.8 267.85 76.18 276.25 52.45 291.3C22.05 310.83 2.8 338.4 0.3 366.85C-1.65 388.65 6.43 409.85 22.33 424.35C37.95 438.85 59.15 446.43 84.3 446.43C110.48 446.43 137.88 438.03 161.57 422.98C192.25 403.7 211.48 376.08 214 347.33C214.85 338.15 213.7 328.95 211.25 320.3C212.3 320 213.4 319.4 214.55 318.9L245.23 300.48L437.7 408.43C440.25 409.85 443.33 410.7 446.38 410.7C449.18 410.7 451.95 410.15 454.45 408.75L490.18 390.85C495.48 388.08 499.08 382.8 499.95 376.63C500.5 370.78 498 364.65 493 361L351.55 249.98L492.98 138.95zM161.55 177.45C154.25 184.18 142.82 187.48 129.98 187.48C112.98 187.48 93.45 181.9 76.4 171.08C46.33 152.07 35.68 123.88 52.7 108.27C59.98 101.57 71.43 98.22 84.28 98.22C100.98 98.22 120.8 103.8 137.85 114.7C167.93 133.65 178.55 161.83 161.55 177.45zM137.85 385.3C120.8 396.18 100.98 401.73 84.28 401.73C71.43 401.73 59.98 398.4 52.7 391.7C35.7 376.08 46.35 347.9 76.43 328.93C93.45 318.05 113 312.48 129.98 312.48C142.82 312.48 154.25 315.85 161.55 322.5C178.55 338.13 167.93 366.3 137.85 385.3zM276.7 214.25L482.08 374.98L446.35 392.8L232.1 272.58V241.02L187.5 214.25L189.98 212.05C190.53 211.2 191.13 210.9 191.93 210.35C194.18 208.15 195.83 205.88 198.08 203.68L205.33 196.43L249.95 223.18L276.7 214.25zM214.25 269.48V272.58C214.25 279 217.88 284.83 223.43 288.18L227.33 290.43L205.33 303.58L198.08 296.3C195.83 294.05 194.18 291.85 191.93 289.9C191.13 289.05 190.53 288.75 189.98 288.17L187.5 285.67L214.25 269.48zM285.68 249.95C285.68 240.2 277.6 232.15 267.83 232.15S249.95 240.2 249.95 249.95C249.95 259.73 258.05 267.85 267.83 267.85S285.68 259.73 285.68 249.95zM482.08 125.02L337 238.83L287.6 200.35C286.75 199.2 285.38 198.92 283.95 198.4L446.33 107.15L482.08 125.02z" />
    <glyph glyph-name="tud_actions_delete"
      unicode="&#xEA4A;"
      horiz-adv-x="500" d="M479.15 385.4C479.15 379.58 474.6 375 468.78 375H437.5V66.4C437.5 30.55 414.05 0 385.45 0H114.55C85.95 0 62.5 29.27 62.5 65.1V375H31.23C25.4 375 20.85 379.58 20.85 385.4V406.23C20.85 412.1 25.4 416.65 31.23 416.65H131.82L154.63 471C161.13 486.98 180.68 500 197.9 500H302.1C319.33 500 338.88 486.98 345.38 471L368.15 416.65H468.75C474.58 416.65 479.13 412.1 479.13 406.23V385.4zM395.85 375H104.15V66.4C104.15 50.77 112.95 41.67 114.55 41.67H385.45C387.05 41.67 395.85 50.77 395.85 66.4V375zM187.5 114.55C187.5 108.68 182.93 104.1 177.1 104.1H156.23C150.4 104.1 145.85 108.68 145.85 114.55V302.05C145.85 307.88 150.4 312.45 156.23 312.45H177.1C182.93 312.45 187.5 307.88 187.5 302.05V114.55zM322.9 416.65L307.28 454.73C306.33 456.05 303.38 457.95 301.75 458.33H198.55C196.63 457.95 194 456.05 193.08 454.73L177.1 416.65H322.9zM270.85 114.55C270.85 108.68 266.27 104.1 260.45 104.1H239.55C233.73 104.1 229.15 108.68 229.15 114.55V302.05C229.15 307.88 233.73 312.45 239.55 312.45H260.45C266.28 312.45 270.85 307.88 270.85 302.05V114.55zM354.15 114.55C354.15 108.68 349.6 104.1 343.78 104.1H322.9C317.08 104.1 312.5 108.68 312.5 114.55V302.05C312.5 307.88 317.08 312.45 322.9 312.45H343.78C349.6 312.45 354.15 307.88 354.15 302.05V114.55z" />
    <glyph glyph-name="tud_actions_deleteLanguage"
      unicode="&#xEA4B;"
      horiz-adv-x="500" d="M499.5 225.76C499.5 222.35 496.84 219.67 493.44 219.67H475.16V38.93C475.16 17.93 461.45 0.04 444.73 0.04H286.41C269.7 0.04 255.99 17.19 255.99 38.16V219.67H237.71C234.31 219.67 231.65 222.35 231.65 225.76V237.96C231.65 241.4 234.31 244.06 237.71 244.06H296.51L309.83 275.89C313.63 285.25 325.06 292.88 335.12 292.88H396.02C406.09 292.88 417.52 285.25 421.31 275.89L434.62 244.06H493.42C496.82 244.06 499.48 241.4 499.48 237.96V225.76L499.5 225.76L499.5 225.76zM450.82 219.67H280.33V38.93C280.33 29.78 285.47 24.45 286.41 24.45H444.74C445.67 24.45 450.81 29.78 450.81 38.93L450.82 219.67L450.82 219.67zM329.04 67.13C329.04 63.69 326.37 61.01 322.96 61.01H310.77C307.36 61.01 304.7 63.69 304.7 67.13V176.95C304.7 180.36 307.36 183.04 310.77 183.04L322.97 183.03C326.37 183.03 329.05 180.36 329.05 176.94L329.04 67.13zM408.18 244.06L399.04 266.37C398.49 267.14 396.76 268.25 395.81 268.47H335.51C334.38 268.25 332.84 267.14 332.3 266.37L322.97 244.06H408.18L408.18 244.06zM377.76 67.13C377.76 63.69 375.09 61.01 371.68 61.01H359.47C356.06 61.01 353.39 63.69 353.39 67.13V176.95C353.39 180.36 356.06 183.04 359.47 183.04L371.68 183.03C375.08 183.03 377.76 180.36 377.76 176.94V67.13zM426.45 67.13C426.45 63.69 423.79 61.01 420.38 61.01H408.18C404.78 61.01 402.1 63.69 402.1 67.13V176.95C402.1 180.36 404.77 183.04 408.18 183.04L420.38 183.03C423.79 183.03 426.45 180.36 426.45 176.94V67.13zM89.86 405.14L89.87 405.14C92.7 409.23 95.83 413.16 99.25 416.88L79.22 424.8C71.11 417.63 64.42 408.91 59.56 399.24L81.39 390.61C83.83 395.67 86.66 400.52 89.86 405.14zM148.14 414.13L156.69 435.85C146.72 432.47 137.17 427.84 128.46 421.91L148.14 414.13zM75.73 376.28L53.93 384.89C50.88 374.49 49.84 363.55 50.9 352.76L70.82 344.89C70.89 355.52 72.53 366.13 75.73 376.28zM54.66 334.7C59.62 319.34 68.99 305.5 81.44 295.23C76.87 305.63 73.62 316.61 71.98 327.86L54.66 334.7zM176.29 418.57H176.27C174.71 422.41 172.93 426.22 170.92 429.99L162.45 408.48L181.9 400.79C180.55 406.76 178.68 412.71 176.29 418.57zM114.73 410.76C107.01 403.3 100.52 394.56 95.72 384.95L131.14 370.95L142.49 399.79L114.73 410.76zM180.63 351.39C183.68 361.7 184.88 372.52 184.33 383.25L156.81 394.13L145.46 365.29L180.63 351.39zM175.02 337.03L139.81 350.95L128.46 322.1L156.05 311.2C163.79 318.64 170.28 327.39 175.02 337.03zM114.45 430.75L114.45 430.75C122.45 436.86 131.17 441.94 140.38 446C124.39 446.92 108.25 443.21 94.25 435.43L111.66 428.55C112.57 429.29 113.51 430.03 114.45 430.75zM194.96 345.72L217.02 337.01C220.09 347.4 221.12 358.33 220.08 369.12L199.81 377.13C199.73 366.5 198.11 355.89 194.96 345.72zM100.09 292.04L108.5 313.42L88.87 321.18C91.25 311 95.13 301.23 100.09 292.04zM411.48 477.36C411.48 489.77 401.32 500 388.89 500H336.93H333.31H329.57H78.55L74.9 500H71.37H22.09C9.66 500 -0.5 489.81 -0.5 477.36V427.98V420.78V285.52V278.3V228.02C-0.5 215.57 9.66 205.39 22.09 205.39H73.73L51.9 158.88C51.42 158.12 51.64 157.09 52.41 156.61C52.88 156.32 53.44 156.29 53.91 156.48L144.08 205.39L218.79 205.43L219.25 225.76V250.39C219.25 253.83 221.91 256.49 225.31 256.49H284.11L297.43 288.32C301.23 297.68 312.65 305.38 322.72 305.38H411.49L411.48 477.36zM175.46 268.73V268.73C125.21 246.85 65.17 270.74 43.44 320.9H43.44C8.55 401.35 90.63 486.8 172.3 454.53C253.66 422.39 255.69 303.63 175.46 268.73zM171.55 305.08L191.71 297.11C199.83 304.28 206.53 312.99 211.39 322.66L189.35 331.37C184.77 321.78 178.74 312.9 171.55 305.08zM189.52 426.71C190.23 425.05 190.91 423.39 191.54 421.72H191.56C194.53 413.95 196.78 405.89 198.16 397.68H198.16C198.37 396.49 198.55 395.31 198.71 394.14L216.33 387.18L216.16 387.69L216.17 387.7C211.16 402.87 201.84 416.53 189.52 426.71zM156.68 291.55L156.69 291.54C148.43 285.23 139.33 280.08 129.8 275.98C143.29 275.06 156.93 277.46 169.33 282.85V282.86C171.83 283.95 174.28 285.15 176.67 286.48L159.09 293.42C158.31 292.79 157.5 292.17 156.68 291.55zM90.04 370.62C86.94 360.31 85.74 349.5 86.33 338.76L114.14 327.76L125.5 356.61L90.04 370.62zM122.81 307.76L114.48 286.58C124.25 289.88 133.64 294.35 142.22 300.09L122.81 307.76z" />
    <glyph glyph-name="tud_actions_paste"
      unicode="&#xEA4C;"
      horiz-adv-x="500" d="M500 26.8C500 12.03 488 0 473.25 0H205.33C190.58 0 178.57 12.03 178.57 26.8V71.42H26.75C12 71.42 0 83.47 0 98.25V473.25C0 488.03 12 500 26.75 500H330.38C345.15 500 357.13 488.03 357.13 473.25V381.73C360.78 379.48 364.1 377.03 367.18 373.9L481.05 260.08C491.63 249.47 500 229.1 500 214.27V26.8zM285.73 455.38C285.73 460.13 281.53 464.28 276.77 464.28H80.38C75.65 464.28 71.45 460.13 71.45 455.38V437.53C71.45 432.83 75.65 428.58 80.38 428.58H276.75C281.5 428.58 285.7 432.83 285.7 437.53V455.38zM464.28 35.72V214.3H348.18C333.4 214.3 321.43 226.33 321.43 241.1V357.13H214.28V35.73H464.28zM440.58 250L357.13 333.48V250H440.58z" />
    <glyph glyph-name="tud_actions_rename"
      unicode="&#xEA4D;"
      horiz-adv-x="500" d="M341.2 16.35C341.9 27.7 342.63 44.55 342.63 59.3V260.38H372.5V155.88H373.2C383.83 174.45 403.1 186.5 429.93 186.5C471.15 186.5 500.38 152.13 500 101.6C500 42.12 462.58 12.55 425.45 12.55C401.4 12.55 382.15 21.85 369.75 43.82H368.73L367.38 16.32H341.2zM372.5 83.05C372.5 79.25 373.2 75.47 373.88 72.05C379.73 51.07 397.28 36.65 419.23 36.65C450.87 36.65 469.75 62.4 469.75 100.6C469.75 133.92 452.57 162.47 420.25 162.47C399.65 162.47 380.37 148.37 374.2 125.32C373.53 121.92 372.5 117.77 372.5 112.97V83.05zM105.13 317.27L102.73 338.25H101.7C92.43 325.2 74.55 313.48 50.83 313.48C17.2 313.48 0 337.23 0 361.28C0 401.45 35.75 423.48 100.03 423.15V426.58C100.03 440.33 96.25 465.08 62.2 465.08C46.7 465.08 30.55 460.28 18.85 452.73L12 472.63C25.75 481.55 45.65 487.43 66.65 487.43C117.5 487.43 129.88 452.73 129.88 419.35V357.15C129.88 342.73 130.55 328.63 132.6 317.27H105.13zM100.68 402.2C67.68 402.85 30.25 397 30.25 364.73C30.25 345.15 43.28 335.85 58.75 335.85C80.4 335.85 94.17 349.6 98.95 363.7C100.03 366.78 100.68 370.23 100.68 373.33V402.2zM202.88 86.25C24.9 86.22 37.3 252.15 37.3 252.15C72.25 136.3 202.88 169.85 202.88 169.85V212.5L294.93 127.23L202.9 44.6L202.88 86.25z" />
    <glyph glyph-name="tud_actions_submitevent"
      unicode="&#xEA4E;"
      horiz-adv-x="499.99999999999994" d="M127.45 200.33C128.39 200.92 129.27 201.29 130.21 201.86V352.24H455.42V187.73C468.4 181.87 478.53 172.6 484.97 163.65V411.35C484.97 419.36 482.03 426.24 476.21 432.12C470.33 437.99 463.4 440.9 455.44 440.9H425.86V463.1C425.86 473.26 422.26 481.94 415.02 489.16C407.72 496.42 399.07 500 388.84 500H374.15C363.98 500 355.28 496.42 348.03 489.16C340.74 481.93 337.16 473.24 337.16 463.1V440.92H248.44V463.1C248.44 473.26 244.89 481.94 237.62 489.16C230.39 496.42 221.65 500 211.52 500H196.75C186.58 500 177.89 496.42 170.65 489.16C163.41 481.93 159.81 473.24 159.81 463.1V440.92H130.2C122.22 440.92 115.25 438.01 109.46 432.13C103.64 426.24 100.7 419.36 100.7 411.35V206.16C103.84 202.13 106.38 197.69 108.22 192.95C115.91 194.65 123.67 198.01 127.45 200.33zM366.73 463.1C366.73 465.25 367.43 467.02 368.79 468.43C370.23 469.79 371.96 470.48 374.13 470.48H388.82C391.02 470.48 392.82 469.79 394.19 468.43C395.55 467.03 396.32 465.25 396.32 463.1V396.54C396.32 394.42 395.55 392.69 394.19 391.24C392.82 389.88 391.02 389.19 388.82 389.19H374.15C371.96 389.19 370.24 389.88 368.81 391.24C367.45 392.67 366.74 394.42 366.74 396.54V463.1zM189.31 463.1C189.31 465.25 190 467.02 191.45 468.43C192.81 469.79 194.61 470.48 196.73 470.48H211.51C213.68 470.48 215.41 469.79 216.84 468.43C218.2 467.03 218.89 465.25 218.89 463.1V396.54C218.89 394.42 218.2 392.69 216.84 391.24C215.41 389.88 213.68 389.19 211.51 389.19H196.73C194.61 389.19 192.81 389.88 191.45 391.24C190 392.67 189.31 394.42 189.31 396.54V463.1zM343.62 235.33C347.86 238.65 353.78 240.32 361.44 240.32C366.79 240.32 371.15 239.31 374.63 237.34C378.13 235.3 380.86 232.57 383 229.16C385.03 225.68 386.48 221.57 387.22 216.96C388.03 212.3 388.4 207.13 388.4 201.56C388.4 195.37 387.98 189.38 386.97 183.67C386.73 182.31 386.14 181.15 385.74 179.89L409.7 191.03C411.28 191.48 412.88 191.72 414.48 192.05C414.68 195.18 414.94 198.25 414.94 201.58C414.94 205.94 414.73 210.35 414.38 214.72C414.03 219.15 413.32 223.45 412.19 227.63C411.02 231.73 409.4 235.77 407.23 239.79C405.11 243.77 402.23 247.5 398.8 250.98C395 254.79 390.33 257.7 384.78 259.84C379.23 261.89 372.83 262.95 365.55 262.95C358.82 262.95 352.74 261.97 347.47 260.07C342.19 258.15 338 255.54 334.89 252.25V301.13H410.78V324.74H310.97V223.72H335.16C336.59 228.17 339.38 232.02 343.62 235.33zM206.85 227.26C207.37 227.26 207.92 227.39 208.46 227.39L233.32 227.56V324.72H206.86L170.7 293.59V264.19L206.85 295.9V227.26zM468.8 139.75C462.63 149.48 444.42 166.48 419.66 159.37L348.94 126.06C338 119.81 318.6 121.5 318.6 121.5C326.68 130.6 328.39 143.59 328.39 152.32C328.39 175.82 304.95 195.28 286.78 195.28L211.47 194.8C197.64 194.8 175.45 191.21 143.78 171.56C135.5 166.39 119.85 160.25 105.88 159.39C93.95 158.7 89.91 158.9 89.91 158.9S89.91 160.67 89.91 164.66C89.91 174.91 84.49 192.49 62.92 192.49H42.56C27.31 192.47 15.04 180.21 15.04 165V27.48C15.04 12.23 27.31 0 42.56 0H64.01C86.53 0 89.91 13.9 89.91 26.99V37.16C104.77 33.54 171.29 15.58 185.71 15.41C228.67 14.93 273.6 13.7 314.05 17.94C350.4 21.72 456.92 80.45 466.61 90.16C480.18 103.66 475.9 128.65 468.8 139.75zM56.29 27.46C48.77 27.46 42.56 33.69 42.56 41.24C42.56 48.73 48.77 54.94 56.29 54.94S70.05 48.73 70.05 41.24C70.07 33.69 63.81 27.46 56.29 27.46zM445.43 94.23C432.67 86.68 347.91 39.65 321.12 35.61C296.6 31.92 208.95 31.16 185.71 33.08C171.22 34.26 117.61 46.63 97.06 50.87C95.33 51.21 90.25 52.89 90.25 52.89V142.92C90.25 142.92 97.8 142.98 100.34 142.98C123.14 143.12 148.17 151.73 161.01 160.74C179.38 173.66 201.49 177.23 213.98 176.45H283.16C297.55 176.45 310.67 163.56 310.67 148.98C310.67 134.18 298.02 122.45 283.16 122.45H211.02C206.09 122.52 202.67 117.83 202.67 113.08C202.6 108.12 207.43 104.08 211.02 104.08C216.22 104.08 335.29 104.05 339.82 104.08C354.64 104.28 413.3 136.94 422.68 141.22C428.23 143.74 444.47 144.01 453.99 127.57C460.98 115.59 455.74 100.31 445.43 94.23z" />
    <glyph glyph-name="tud_actions_submiteventseries"
      unicode="&#xEA4F;"
      horiz-adv-x="499.99999999999994" d="M468.8 139.75C462.63 149.48 444.42 166.48 419.66 159.37L348.94 126.06C338 119.81 318.6 121.5 318.6 121.5C326.68 130.6 328.39 143.59 328.39 152.32C328.39 175.82 304.95 195.28 286.78 195.28L211.47 194.8C197.64 194.8 175.45 191.21 143.78 171.56C135.5 166.39 119.85 160.25 105.88 159.39C93.95 158.7 89.91 158.9 89.91 158.9S89.91 160.67 89.91 164.66C89.91 174.91 84.49 192.49 62.92 192.49H42.56C27.31 192.47 15.04 180.21 15.04 165V27.48C15.04 12.23 27.31 0 42.56 0H64.01C86.53 0 89.91 13.9 89.91 26.99V37.16C104.77 33.54 171.29 15.58 185.71 15.41C228.67 14.93 273.6 13.7 314.05 17.94C350.4 21.72 456.92 80.45 466.61 90.16C480.18 103.66 475.9 128.65 468.8 139.75zM56.29 27.46C48.77 27.46 42.56 33.69 42.56 41.24C42.56 48.73 48.77 54.94 56.29 54.94S70.05 48.73 70.05 41.24C70.07 33.69 63.81 27.46 56.29 27.46zM445.43 94.23C432.67 86.68 347.91 39.65 321.12 35.61C296.6 31.92 208.95 31.16 185.71 33.08C171.22 34.26 117.61 46.63 97.06 50.87C95.33 51.21 90.25 52.89 90.25 52.89V142.92C90.25 142.92 97.8 142.98 100.34 142.98C123.14 143.12 148.17 151.73 161.01 160.74C179.38 173.66 201.49 177.23 213.98 176.45H283.16C297.55 176.45 310.67 163.56 310.67 148.98C310.67 134.18 298.02 122.45 283.16 122.45H211.02C206.09 122.52 202.67 117.83 202.67 113.08C202.6 108.12 207.43 104.08 211.02 104.08C216.22 104.08 335.29 104.05 339.82 104.08C354.64 104.28 413.3 136.94 422.68 141.22C428.23 143.74 444.47 144.01 453.99 127.57C460.98 115.59 455.74 100.31 445.43 94.23zM100.06 296.1C152.27 295.95 204.51 296.08 256.71 296.05C265.04 294.77 274.27 300.14 274.98 309.07C275.15 352.98 274.98 396.86 275.03 440.77C274.37 448.61 277.03 457.53 271.73 464.19C266.55 471.22 257.46 469.36 249.97 469.59C244.96 467.99 246.12 472.59 246.1 476.02C247.23 485.12 242.72 495.15 233.32 497.76C225.39 498.79 216.02 499.92 209.37 494.45C201.31 488.59 202.77 478.26 202.71 469.59C189.36 469.59 176 469.59 162.64 469.59C157.66 468.04 159.73 473.53 159.34 476.56C160.45 485.51 155.67 495.2 146.57 497.76C138.64 498.79 129.27 499.93 122.64 494.45C114.58 488.59 116.06 478.26 115.98 469.59C112.44 469.59 108.91 469.59 105.37 469.59C97.05 470.87 87.79 465.52 87.12 456.58C86.97 407.89 87.1 359.2 87.05 310.5C86.86 303.34 92.96 296.71 100.06 296.1zM218.22 483.04C222.09 484.48 228.49 485.24 231.4 481.88C231.99 473.55 231.5 465.12 231.67 456.74C231.08 452.7 233.3 447.26 229.51 444.54C225.39 444.59 218.27 442.38 217.21 447.9C217.19 454.3 217.21 460.76 217.21 467.19C217.65 472.44 216.17 478.17 218.22 483.04zM131.42 483.02C135.31 484.47 141.69 485.23 144.63 481.88C145.21 473.55 144.73 465.12 144.89 456.74C144.28 452.7 146.5 447.26 142.72 444.54C138.59 444.59 131.47 442.38 130.41 447.9C130.41 454.31 130.41 460.74 130.41 467.19C130.89 472.44 129.4 478.17 131.42 483.02zM101.5 426.21C154.53 426.21 207.55 426.21 260.59 426.21C260.59 387.64 260.59 349.09 260.59 310.52C207.55 310.52 154.53 310.52 101.5 310.52C101.5 349.07 101.5 387.64 101.5 426.21zM313.03 296.1C365.24 295.95 417.48 296.08 469.68 296.05C478.01 294.77 487.24 300.14 487.95 309.07C488.09 352.98 487.95 396.86 487.99 440.77C487.33 448.61 490 457.53 484.7 464.19C479.52 471.22 470.43 469.36 462.95 469.59C457.91 467.99 459.09 472.59 459.06 476.02C460.19 485.12 455.69 495.15 446.29 497.76C438.38 498.79 429 499.93 422.36 494.45C414.28 488.59 415.76 478.26 415.69 469.59C402.33 469.59 388.99 469.59 375.63 469.59C370.65 468.03 372.72 473.53 372.31 476.56C373.44 485.51 368.66 495.2 359.54 497.76C351.6 498.79 342.22 499.93 335.59 494.45C327.53 488.57 329.03 478.26 328.95 469.59C325.41 469.59 321.86 469.59 318.35 469.59C310.02 470.87 300.76 465.5 300.07 456.58C299.92 407.89 300.07 359.2 300.04 310.5C299.82 303.34 305.93 296.71 313.03 296.1zM431.17 483.04C435.06 484.48 441.46 485.24 444.37 481.88C444.96 473.55 444.47 465.12 444.64 456.74C444.05 452.7 446.25 447.26 442.48 444.54C438.36 444.59 431.24 442.38 430.18 447.9C430.17 454.3 430.18 460.76 430.18 467.19C430.62 472.44 429.11 478.17 431.17 483.04zM344.39 483.02C348.27 484.47 354.66 485.23 357.62 481.88C358.19 473.55 357.71 465.12 357.87 456.74C357.27 452.7 359.49 447.26 355.69 444.54C351.56 444.59 344.45 442.38 343.4 447.9C343.4 454.31 343.4 460.74 343.4 467.19C343.82 472.44 342.38 478.17 344.39 483.02zM314.46 426.21C367.47 426.21 420.51 426.21 473.56 426.21C473.56 387.64 473.56 349.09 473.56 310.52C420.52 310.52 367.48 310.52 314.46 310.52C314.46 349.07 314.46 387.64 314.46 426.21zM101.5 201.21C101.5 206.96 101.5 212.74 101.5 218.49C131.96 218.49 162.4 218.49 192.86 218.49C199.21 219.57 205.42 220.16 211.47 220.16L275.05 220.58C275.05 224.75 275.05 228.91 275.05 233.06C274.39 240.9 277.05 249.84 271.75 256.5C266.57 263.54 257.48 261.67 249.99 261.91C244.98 260.32 246.14 264.9 246.12 268.33C247.25 277.44 242.74 287.47 233.33 290.08C225.41 291.12 216.03 292.25 209.39 286.78C201.33 280.92 202.79 270.59 202.72 261.91C189.38 261.91 176.02 261.91 162.66 261.91C157.66 260.36 159.73 265.84 159.34 268.89C160.45 277.84 155.67 287.53 146.57 290.08C138.66 291.12 129.27 292.25 122.66 286.78C114.6 280.92 116.08 270.57 115.99 261.91C112.46 261.91 108.93 261.91 105.39 261.91C97.06 263.2 87.81 257.82 87.13 248.88C87.1 236.75 87.13 224.6 87.12 212.45C92.8 209.61 97.53 205.7 101.5 201.21zM218.22 275.33C222.09 276.76 228.49 277.54 231.4 274.17C231.99 265.84 231.5 257.4 231.67 249.02C231.08 244.98 233.3 239.54 229.51 236.8C225.39 236.85 218.27 234.66 217.21 240.18C217.19 246.59 217.21 253.02 217.21 259.45C217.65 264.72 216.17 270.45 218.22 275.33zM131.42 275.3C135.31 276.75 141.69 277.52 144.63 274.17C145.21 265.83 144.73 257.4 144.89 249.02C144.28 244.98 146.5 239.54 142.72 236.8C138.59 236.85 131.47 234.66 130.41 240.18C130.41 246.59 130.41 253.02 130.41 259.45C130.89 264.72 129.4 270.45 131.42 275.3zM358.34 176.56V202.6H332.28V200.35C339.18 193.67 344.73 185.59 348.53 176.56H358.34zM455.74 181.62V202.6H429.68V186.27C430.33 186.28 430.99 186.4 431.65 186.4C440.43 186.4 448.44 184.5 455.74 181.62zM121.68 399.19C121.68 394.2 121.68 389.22 121.68 384.24C127.81 389.63 133.93 395.01 140.06 400.36C140.06 373.88 140.06 347.41 140.06 320.94C144.55 320.94 149.04 320.94 153.54 320.94C153.54 352.3 153.54 383.69 153.54 415.04C149.04 415.04 144.55 415.04 140.06 415.04C133.93 409.75 127.82 404.47 121.68 399.19zM238.95 365.61C238.43 367.72 237.57 369.8 236.45 371.82C235.39 373.84 233.99 375.74 232.2 377.51C230.27 379.45 227.9 380.94 225.09 382C222.26 383.05 218.98 383.59 215.29 383.59C211.86 383.59 208.76 383.1 206.04 382.14C203.41 381.16 201.29 379.85 199.69 378.18V403.01H238.3V415.04H187.53V363.61H199.81C200.52 365.92 201.93 367.89 204.04 369.57C206.24 371.25 209.3 372.08 213.16 372.08C215.88 372.08 218.15 371.54 219.89 370.49C221.67 369.52 223.08 368.16 224.13 366.41C225.19 364.64 225.88 362.57 226.23 360.18C226.67 357.81 226.9 355.21 226.9 352.39C226.9 349.22 226.63 346.18 226.11 343.27C225.68 340.36 224.43 337.88 222.39 335.86C219.94 333.41 216.69 332.16 212.63 332.16C208.41 332.16 205.2 333.27 202.99 335.48C200.79 337.76 199.44 341.03 198.89 345.25H185.41C185.69 341.9 186.3 338.69 187.26 335.61C188.23 332.6 189.98 329.84 192.56 327.28C194.58 325.26 197.29 323.55 200.72 322.11C204.17 320.72 208.12 320.01 212.63 320.01C217.21 320.01 221.15 320.72 224.38 322.11C227.64 323.53 230.34 325.3 232.46 327.4C235.89 330.83 238.04 334.58 238.92 338.62C239.89 342.76 240.38 347.36 240.38 352.37C240.38 354.58 240.28 356.78 240.1 358.98C239.98 361.29 239.56 363.49 238.95 365.61zM369.67 358.85C374.77 365.43 380.79 371.4 384.43 378.98C388.06 388.77 386.03 401.05 378.15 408.26C369.57 415.86 356.36 416.82 346.09 412.24C336.79 408.39 331.25 398.26 331.56 388.4C336.05 388.4 340.56 388.4 345.05 388.4C344.97 392.69 346.35 397.27 349.78 400.04C355.32 404.13 364.22 404.13 369.1 398.98C374.31 392.96 373.57 383.28 368.58 377.33C356.26 362.2 343.79 347.17 331.42 332.09C331.42 328.09 331.42 324.07 331.42 320.08C349.66 320.08 367.9 320.08 386.13 320.08C386.13 324.08 386.13 328.11 386.13 332.09C373.36 332.09 360.58 332.09 347.81 332.09C355.1 341.01 362.38 349.93 369.67 358.85zM440.11 358.85C445.23 365.43 451.28 371.4 454.87 378.98C458.55 388.77 456.48 401.05 448.59 408.26C440.03 415.86 426.82 416.82 416.59 412.24C407.28 408.39 401.73 398.26 402.03 388.4C406.52 388.4 411 388.4 415.51 388.4C415.42 392.69 416.82 397.27 420.24 400.04C425.77 404.13 434.69 404.13 439.54 398.98C444.81 392.96 444.03 383.28 439.03 377.33C426.72 362.2 414.26 347.17 401.88 332.09C401.88 328.09 401.88 324.07 401.88 320.08C420.12 320.08 438.34 320.08 456.58 320.08C456.58 324.08 456.58 328.11 456.58 332.09C443.81 332.09 431.02 332.09 418.25 332.09C425.55 341.01 432.84 349.93 440.11 358.85zM156.28 206.74C153.13 207.8 149.7 208.38 145.95 208.38C141.99 208.38 138.32 207.74 134.97 206.39C131.63 205.18 128.71 203.4 126.24 201.12C123.87 198.84 121.98 196.01 120.57 192.68C119.98 191.23 119.56 189.68 119.24 188.1C123.85 189.73 127.96 191.6 130.35 193.08C139.16 198.55 147.78 202.92 156.28 206.74zM407.03 202.6L380.99 202.6L380.99 176.56L397.54 176.56L407.03 180.96z" />
    <glyph glyph-name="tud_actions_submitnews"
      unicode="&#xEA50;"
      horiz-adv-x="500" d="M353.33 338.31H222.29C218.98 338.31 216.35 335.73 216.35 332.35V320.48C216.35 317.1 218.98 314.5 222.29 314.5H353.33C356.71 314.5 359.31 317.1 359.31 320.48V332.35C359.31 335.73 356.71 338.31 353.33 338.31zM353.33 290.67H222.29C218.98 290.67 216.35 288.04 216.35 284.71V272.83C216.35 269.46 218.98 266.85 222.29 266.85H353.33C356.71 266.85 359.31 269.46 359.31 272.83V284.71C359.31 288.04 356.71 290.67 353.33 290.67zM106.54 373.56H320.94C324.29 373.56 326.9 376.15 326.9 379.52V398.92C326.9 402.27 324.29 404.9 320.94 404.9H106.54C103.17 404.9 100.56 402.27 100.56 398.92V379.5C100.56 376.15 103.17 373.56 106.54 373.56zM483.58 357.54H410.21V425.04C410.21 441.44 396.9 454.79 380.48 454.79H82.58C66.21 454.79 52.87 441.44 52.87 425.04V262.56C61.58 260.46 68.96 256.5 74.81 251.23V423.1C74.81 426.42 77.63 429.23 80.94 429.23H378.83C381.88 429.23 384.67 426.42 384.67 423.1V234.81C406.38 233.54 423.69 221.81 434.21 209.46L494.17 321.4C496.94 326.71 500 333.9 500 340.85C500 354.17 490.25 357.54 483.58 357.54zM310.06 219.19H333.77L359.33 231.02V237.04C359.33 240.4 356.73 242.98 353.35 242.98H295.81C302.02 236.17 306.94 228.08 310.06 219.19zM176.85 266.4L186.19 266.44V319.25C186.19 328.13 179 335.31 170.13 335.31H116.54C107.65 335.31 100.46 328.1 100.46 319.25V241.35C127.58 257.9 153.27 266.4 176.85 266.4zM421.33 175.1C415.58 184.15 398.69 199.9 375.73 193.31L310.04 162.4C299.88 156.63 281.87 158.17 281.87 158.17C289.35 166.58 290.96 178.67 290.96 186.79C290.96 208.58 269.21 226.65 252.33 226.65L182.42 226.21C169.56 226.21 148.98 222.88 119.54 204.65C111.85 199.88 97.33 194.15 84.35 193.33C73.29 192.73 69.54 192.9 69.54 192.9S69.54 194.52 69.54 198.21C69.54 207.73 64.5 224.06 44.48 224.06H25.54C11.38 224.06 0 212.69 0 198.54V70.83C0 56.67 11.38 45.31 25.54 45.31H45.46C66.4 45.31 69.52 58.23 69.52 70.37V79.81C83.29 76.48 145.06 59.79 158.48 59.62C198.37 59.15 240.08 58.04 277.65 61.94C311.42 65.48 410.31 120.04 419.33 129.04C431.88 141.63 427.9 164.79 421.33 175.1zM38.31 70.83C31.31 70.83 25.54 76.65 25.54 83.65C25.54 90.6 31.31 96.35 38.31 96.35C45.29 96.35 51.08 90.6 51.08 83.65C51.08 76.67 45.29 70.83 38.31 70.83zM399.62 132.85C387.79 125.85 309.06 82.17 284.21 78.42C261.44 75 180.06 74.29 158.48 76.06C145.02 77.19 95.25 88.65 76.19 92.58C74.58 92.92 69.81 94.46 69.81 94.46V178.06C69.81 178.06 76.85 178.15 79.21 178.15C100.37 178.25 123.6 186.25 135.52 194.63C152.58 206.6 173.12 209.94 184.71 209.19H248.96C262.31 209.19 274.5 197.25 274.5 183.69C274.5 169.96 262.75 159.06 248.96 159.06H181.98C177.37 159.1 174.21 154.73 174.21 150.35C174.15 145.71 178.65 142 181.98 142C186.77 142 297.33 141.98 301.56 142C315.31 142.19 369.77 172.5 378.5 176.46C383.65 178.83 398.71 179.04 407.58 163.79C414.06 152.67 409.21 138.5 399.62 132.85z" />
    <glyph glyph-name="tud_actions_workcopy"
      unicode="&#xEA51;"
      horiz-adv-x="500" d="M340.73 115.48L303.81 152.46L290.33 101.98zM352.83 127.71L470.5 245.31L434 282.23L316.42 164.58zM499.98 274.84L483.09 257.91L446.12 294.79L463.01 311.72L499.98 274.84zM230.06 329.08V422.54H143.77V329.08C143.77 317.19 134.1 307.52 122.23 307.52H28.75V163.75H143.77V221.25C143.77 233.15 150.75 249.79 159.02 258.1L230.06 329.08zM47.85 336.27H115.04V403.46L47.85 336.27zM373.81 234.79M402.6 161.94V70.27C402.6 58.37 392.92 48.71 381.04 48.71H165.35C153.46 48.71 143.79 58.37 143.79 70.27V134.96H21.54C9.67 134.98 0 144.63 0 156.56V307.52C0 319.42 6.96 336.06 15.25 344.38L106.92 436.04C115.25 444.33 131.85 451.29 143.77 451.29H237.25C249.13 451.29 258.79 441.63 258.79 429.75V356.06C267.56 361.23 278.77 365.04 287.56 365.04H381.02C392.9 365.04 402.58 355.38 402.58 343.48V265.6L373.79 234.79V336.27H287.54V242.83C287.54 230.94 277.87 221.27 265.98 221.27H172.54V77.5H373.81V132.56L402.6 161.94M191.63 250H258.81V317.19L191.63 250z" />
    <glyph glyph-name="tud_allyouneed"
      unicode="&#xEA52;"
      horiz-adv-x="500" d="M393.13 338.42L411.5 295L455.75 292.95C456.8 292.89 457.6 292.02 457.55 290.99C457.54 290.43 457.29 289.96 456.92 289.65L421.21 258.7L432.92 215.95C433.19 214.92 432.6 213.89 431.59 213.62C431.07 213.49 430.54 213.55 430.12 213.83V213.8L389.66 238.22L352.66 213.84C351.8 213.29 350.62 213.5 350.05 214.38C349.74 214.84 349.68 215.34 349.77 215.84L360.48 261.88L325.9 289.59C325.07 290.24 324.95 291.42 325.58 292.23C325.93 292.67 326.41 292.89 326.91 292.94L374 296.99L389.62 338.45C389.99 339.41 391.08 339.91 392.08 339.53C392.61 339.35 393.01 338.91 393.18 338.42zM33.58 297.96C32.69 297.96 31.99 297.27 31.99 296.4V226.57H32.05L43.72 226.6L55.68 235.72C56.61 236.47 58.17 236.47 59.17 235.72L59.32 235.62L70.07 227.33L99.99 250.33C101 251.08 102.48 251.08 103.48 250.33L148.36 215.67L148.35 296.42C148.35 297.28 147.64 297.97 146.75 297.97H33.54zM59.75 286.54C69.21 286.54 76.83 278.88 76.83 269.46C76.83 260 69.21 252.33 59.75 252.33C50.33 252.33 42.67 260 42.67 269.46C42.67 278.88 50.33 286.54 59.75 286.54zM476.13 349.75V170.96C476.13 169.63 474.57 168.56 472.65 168.56C471.71 168.56 470.84 168.81 470.22 169.28L391.3 209.73L312.26 169.15C310.83 168.28 308.65 168.38 307.38 169.37C306.79 169.84 306.52 170.4 306.52 170.96V349.75H0.27V150.29H499.98V349.75zM155.67 204.04C155.67 203.17 154.96 202.42 154.07 202.42H25.74C24.84 202.42 24.14 203.17 24.14 204.04V304.33C24.14 305.21 24.84 305.92 25.74 305.92H154.07C154.96 305.92 155.67 305.21 155.67 304.33zM284.96 208.21C284.96 205.41 283 203.25 280.46 203.25H181.75C179.22 203.25 177.25 205.46 177.25 208.21V218.08C177.25 220.88 179.23 223.04 181.75 223.04H280.46C283.01 223.04 284.96 220.87 284.96 218.08zM284.96 247.79C284.96 244.99 283 242.83 280.46 242.83H181.75C179.22 242.83 177.25 245.01 177.25 247.79V257.67C177.25 260.47 179.23 262.63 181.75 262.63H280.46C283.01 262.63 284.96 260.43 284.96 257.67zM284.96 287.33C284.96 284.57 283 282.38 280.46 282.38H181.75C179.22 282.38 177.25 284.55 177.25 287.33V297.25C177.25 300.05 179.23 302.21 181.75 302.21H280.46C283.01 302.21 284.96 300.03 284.96 297.25z" />
    <glyph glyph-name="tud_arrow-carousel-left"
      unicode="&#xEA53;"
      horiz-adv-x="500" d="M381.25 500L381.25 476.19L143.75 250L381.25 23.8L381.25 0L118.75 250z" />
    <glyph glyph-name="tud_arrow-carousel-right"
      unicode="&#xEA54;"
      horiz-adv-x="500" d="M118.75 500L118.75 476.19L356.25 250L118.75 23.8L118.75 0L381.25 250z" />
    <glyph glyph-name="tud_arrow-down"
      unicode="&#xEA55;"
      horiz-adv-x="500" d="M0 411.76L0 352.94L250 102.94L500 352.94L500 411.76L250 161.76L0 411.76z" />
    <glyph glyph-name="tud_arrow-small-left"
      unicode="&#xEA56;"
      horiz-adv-x="500" d="M404.41 492.65L345.59 492.65L95.59 242.65L345.59 -7.35L404.41 -7.35L154.41 242.65L404.41 492.65z" />
    <glyph glyph-name="tud_arrow-small-right"
      unicode="&#xEA57;"
      horiz-adv-x="500" d="M95.59 7.35L154.41 7.35L404.41 257.35L154.41 507.35L95.59 507.35L345.59 257.35L95.59 7.35z" />
    <glyph glyph-name="tud_arrow-up"
      unicode="&#xEA58;"
      horiz-adv-x="500" d="M500 102.94L500 157.93L250 397.06L0 157.93L0 102.94L250 342.07L500 102.94z" />
    <glyph glyph-name="tud_audiotransscript"
      unicode="&#xEA59;"
      horiz-adv-x="500" d="M416.75 122.75H275.89C274.01 122.75 272.49 122.15 271.29 120.93C270.07 119.76 269.47 118.21 269.47 116.36V103.54C269.47 101.66 270.07 100.16 271.29 98.94C272.49 97.77 274.01 97.11 275.89 97.11H416.75C418.63 97.11 420.16 97.74 421.35 98.94C422.58 100.16 423.18 101.69 423.18 103.54V116.36C423.18 118.24 422.58 119.76 421.35 120.93C420.16 122.15 418.6 122.75 416.75 122.75zM271.29 223.42C270.1 222.2 269.5 220.67 269.5 218.82V206C269.5 204.12 270.1 202.59 271.32 201.43C272.52 200.2 274.04 199.61 275.92 199.61H416.78C418.66 199.61 420.19 200.2 421.38 201.43C422.61 202.59 423.21 204.15 423.21 206V218.82C423.21 220.7 422.61 222.2 421.38 223.42C420.19 224.59 418.63 225.24 416.78 225.24H275.89C274.01 225.21 272.49 224.59 271.29 223.42zM416.75 174H275.89C274.01 174 272.49 173.4 271.29 172.17C270.07 170.98 269.47 169.43 269.47 167.57V154.78C269.47 152.9 270.07 151.38 271.29 150.18C272.49 148.96 274.01 148.36 275.89 148.36H416.75C418.63 148.36 420.16 148.96 421.35 150.18C422.58 151.38 423.18 152.93 423.18 154.78V167.57C423.18 169.46 422.58 170.98 421.35 172.17C420.16 173.4 418.6 174 416.75 174zM496 287.61C493.31 294.03 490.11 299.11 486.4 302.84L423.98 365.3C420.25 369 415.17 372.2 408.74 374.86C402.35 377.55 396.49 378.89 391.14 378.89H211.86C206.51 378.89 201.97 377.01 198.23 373.27S192.64 365 192.64 359.68V39.53C192.64 34.18 194.53 29.67 198.26 25.94S206.54 20.32 211.89 20.32H480.82C486.17 20.32 490.68 22.2 494.41 25.94S500.03 34.18 500.03 39.53V270.04C500 275.35 498.69 281.24 496 287.61zM397.54 351.67C401.39 350.33 404.14 348.86 405.76 347.28L468.39 284.65C469.97 283.03 471.43 280.28 472.75 276.43H397.51V351.67zM474.39 45.93H218.25V353.28H371.93V270.07C371.93 264.69 373.81 260.17 377.55 256.44S385.82 250.82 391.17 250.82H474.42V45.93zM386.15 403.1C394.46 403.1 403.3 401.15 412.42 397.33C413.61 396.82 414.54 396.16 415.68 395.63C414.3 397.51 413.26 399.42 411.76 401.24C392.1 425.48 365.3 444.6 331.44 458.64C297.68 472.66 260.74 479.68 220.67 479.68C190.79 479.68 162.25 475.5 134.94 467.25C107.69 458.91 84.2 447.74 64.54 433.63C44.82 419.47 29.13 402.68 17.51 383.25C5.83 363.8 0 343.39 0 322.09C0 297.47 7.44 274.37 22.29 252.85C37.11 231.37 57.46 213.29 83.22 198.68C81.43 192.08 79.3 185.89 76.79 179.91C74.37 174.06 72.13 169.22 70.19 165.42C68.22 161.6 65.53 157.41 62.12 152.84C58.78 148.27 56.24 145.01 54.53 143.16C52.77 141.22 49.99 138.14 46.05 133.75C42.1 129.44 39.5 126.58 38.37 125.29C38.07 124.99 37.44 124.22 36.45 123.08C35.44 121.91 34.84 121.26 34.69 120.99C34.51 120.78 34.06 119.97 33.17 118.75C32.42 117.55 32.06 116.78 32.12 116.48C32.18 116.12 32.06 115.31 31.58 113.97C31.17 112.65 31.23 111.67 31.76 111.01V110.8C32.39 107.84 33.8 105.45 36.07 103.63C38.31 101.8 40.76 101.09 43.54 101.48C54.23 102.73 63.59 104.55 71.62 106.85C106.29 115.73 137.39 130.64 165.21 151.05V361.47C165.21 372.77 169.43 382.96 177.37 390.9C185.32 398.88 195.51 403.07 206.84 403.07H386.15z" />
    <glyph glyph-name="tud_bannerboxcontainer"
      unicode="&#xEA5A;"
      horiz-adv-x="500" d="M420.05 375.56C420.05 366.74 412.7 359.41 403.84 359.41H16.15C7.33 359.41 0 366.7 0 375.56V440.14C0 448.94 7.29 456.32 16.15 456.32H403.85C412.67 456.32 420.06 448.97 420.06 440.14V375.56zM210.84 68.63L32.29 68.63C23.47 68.63 16.14 75.93 16.14 84.82V327.12C16.14 335.89 23.43 343.27 32.29 343.27L387.72 343.26C396.48 343.26 403.87 335.91 403.87 327.11V252.51H216.33C213.32 252.51 210.84 250.03 210.84 247.02L210.84 68.63L210.84 68.63zM242.3 294.8H177.66C168.84 294.8 161.51 287.49 161.51 278.62S168.8 262.47 177.66 262.47L242.3 262.48C251.12 262.48 258.45 269.77 258.45 278.63C258.45 287.49 251.16 294.8 242.3 294.8zM495.07 240.77H227.77C225.06 240.77 222.85 238.55 222.85 235.84V48.6C222.85 45.89 225.06 43.68 227.77 43.68H495.07C497.78 43.68 500 45.89 500 48.6V235.84C500 238.55 497.78 240.77 495.07 240.77zM327.82 56.38H237.19V120.38H327.82V56.38zM470.7 132.48H237.2V196.48H470.7V132.48zM298.81 85.15L275.21 61.55L275.15 61.51C274.73 61.11 274.23 60.78 273.74 60.57L273.73 60.58C273.17 60.34 272.55 60.19 271.97 60.19C271.38 60.19 270.77 60.33 270.21 60.57L270.21 60.58C269.71 60.79 269.21 61.12 268.8 61.52L268.74 61.55L266.19 64.1C265.77 64.52 265.43 65.03 265.19 65.61L265.2 65.61C264.98 66.15 264.85 66.74 264.85 67.34C264.85 67.9 264.97 68.51 265.2 69.07H265.2C265.42 69.61 265.75 70.13 266.18 70.56L266.2 70.57L284.04 88.37L266.2 106.18L266.15 106.23C265.74 106.65 265.42 107.16 265.21 107.66L265.2 107.7C264.98 108.24 264.85 108.85 264.85 109.42C264.85 109.98 264.97 110.57 265.2 111.13V111.15C265.41 111.67 265.74 112.18 266.17 112.62L266.2 112.67L268.75 115.2L268.8 115.24C269.21 115.63 269.7 115.96 270.2 116.17H270.21C270.78 116.42 271.4 116.56 271.98 116.56C272.57 116.56 273.19 116.42 273.74 116.18L273.76 116.17C274.25 115.95 274.75 115.62 275.17 115.22L275.21 115.2L298.81 91.61L298.85 91.55C299.25 91.13 299.58 90.62 299.8 90.11L299.79 90.1C300.02 89.54 300.16 88.94 300.16 88.36C300.16 87.76 300.02 87.14 299.77 86.58L299.77 86.59C299.55 86.08 299.22 85.59 298.83 85.19L298.81 85.15L298.81 85.15z" />
    <glyph glyph-name="tud_bannerboxelement"
      unicode="&#xEA5B;"
      horiz-adv-x="500" d="M491.11 427.78H8.89C4 427.78 0 423.78 0 418.89V81.11C0 76.22 4 72.22 8.89 72.22H491.11C496 72.22 500 76.22 500 81.11V418.89C500 423.78 496 427.78 491.11 427.78zM189.38 95.13H25.89V210.59H189.38V95.13zM447.15 232.42H25.89V347.88H447.15V232.42zM137.04 147.04L94.47 104.46L94.37 104.4C93.6 103.67 92.7 103.08 91.81 102.7L91.8 102.71C90.79 102.27 89.67 102.01 88.63 102.01C87.57 102.01 86.46 102.26 85.45 102.7L85.46 102.7C84.55 103.09 83.65 103.69 82.9 104.4L82.8 104.46L78.19 109.07C77.44 109.82 76.82 110.74 76.4 111.78L76.41 111.79C76.01 112.77 75.78 113.82 75.78 114.91C75.78 115.92 76 117.01 76.41 118.02H76.41C76.81 119 77.41 119.94 78.17 120.72L78.22 120.74L110.4 152.85L78.22 184.99L78.13 185.07C77.39 185.84 76.81 186.75 76.43 187.66L76.41 187.72C76.01 188.71 75.78 189.8 75.78 190.82C75.78 191.83 76.01 192.9 76.41 193.91V193.95C76.79 194.89 77.38 195.81 78.15 196.61L78.22 196.69L82.83 201.26L82.91 201.33C83.65 202.04 84.54 202.62 85.43 203.02H85.46C86.48 203.46 87.6 203.72 88.64 203.72C89.71 203.72 90.82 203.46 91.82 203.03L91.84 203.02C92.74 202.62 93.65 202.03 94.39 201.31L94.47 201.27L137.04 158.7L137.12 158.6C137.84 157.84 138.44 156.92 138.83 155.99L138.81 155.99C139.24 154.97 139.49 153.88 139.49 152.83C139.49 151.76 139.23 150.64 138.79 149.64L138.77 149.64C138.37 148.73 137.79 147.85 137.08 147.12L137.04 147.04z" />
    </font>
</defs>
</svg>
